<?xml version="1.0" standalone="no"?>
<!DOCTYPE svg PUBLIC "-//W3C//DTD SVG 1.1//EN" "http://www.w3.org/Graphics/SVG/1.1/DTD/svg11.dtd" >
<svg xmlns="http://www.w3.org/2000/svg" xmlns:xlink="http://www.w3.org/1999/xlink" version="1.1">
<metadata></metadata>
<defs>
<font id="cera_proregular" horiz-adv-x="1146" >
<font-face units-per-em="2048" ascent="1655" descent="-393" />
<missing-glyph horiz-adv-x="573" />
<glyph horiz-adv-x="0" />
<glyph horiz-adv-x="682" />
<glyph unicode=" "  horiz-adv-x="573" />
<glyph unicode="&#x09;" horiz-adv-x="573" />
<glyph unicode="&#xa0;" horiz-adv-x="573" />
<glyph unicode="!" horiz-adv-x="624" d="M182 106q0 56 38 93t91 37q55 0 92 -37t37 -93t-37 -92.5t-92 -36.5q-54 0 -91.5 36.5t-37.5 92.5zM215 1352h191l-29 -924h-131z" />
<glyph unicode="&#x22;" horiz-adv-x="948" d="M193 825l28 527h185l-89 -527h-124zM567 825l29 527h184l-88 -527h-125z" />
<glyph unicode="#" horiz-adv-x="1222" d="M57 354v135h199l49 373h-199v135h218l47 355h137l-49 -355h391l47 355h137l-49 -355h180v-135h-198l-49 -373h200v-135h-219l-49 -354h-133l47 354h-391l-49 -354h-134l48 354h-181zM391 489h391l49 373h-391z" />
<glyph unicode="$" horiz-adv-x="1097" d="M82 330l115 82q109 -179 272 -217v454l-12 6q-61 25 -107.5 53t-89 67.5t-65.5 92.5t-23 117q0 123 82.5 204.5t214.5 102.5v244h158v-240q199 -27 315 -219l-108 -84q-85 131 -207 158v-410l45 -18q144 -60 220.5 -141t76.5 -201q0 -136 -95 -225.5t-247 -108.5v-240 h-158v242q-248 39 -387 281zM332 987q0 -63 35 -103t102 -73v336q-61 -16 -99 -56.5t-38 -103.5zM627 190q82 14 132 63.5t50 125.5q0 69 -46 115.5t-136 89.5v-394z" />
<glyph unicode="%" horiz-adv-x="1658" d="M102 1044q0 139 98 234.5t238 95.5q139 0 236.5 -95.5t97.5 -234.5t-97.5 -234t-236.5 -95q-140 0 -238 95t-98 234zM236 1044q0 -92 56.5 -152.5t145.5 -60.5q87 0 145 61t58 152t-58 152t-145 61q-89 0 -145.5 -60.5t-56.5 -152.5zM373 0l774 1352h141l-774 -1352h-141 zM887 309q0 139 97.5 234.5t236.5 95.5t237 -95.5t98 -234.5t-98 -234t-237 -95t-236.5 95t-97.5 234zM1020 309q0 -91 57 -151t146 -60q86 0 143 60t57 151q0 92 -57 152.5t-143 60.5q-89 0 -146 -60t-57 -153z" />
<glyph unicode="&#x26;" horiz-adv-x="1280" d="M102 330q0 53 17 103.5t42.5 89t69 82t81.5 74t96 73.5q-73 92 -109.5 167t-36.5 158q0 128 81 212.5t220 84.5q133 0 215 -80t82 -198q0 -99 -62.5 -186.5t-179.5 -176.5l287 -344q28 39 58 83.5t74.5 113t64.5 98.5l131 -86q-166 -254 -227 -332l223 -266h-193 l-129 154q-87 -87 -181 -132t-210 -45q-175 0 -294.5 98t-119.5 255zM270 344q0 -97 72 -158t178 -61q155 0 289 147l-309 371q-54 -41 -78.5 -60.5t-60.5 -53t-51 -57.5t-27.5 -57.5t-12.5 -70.5zM418 1077q0 -61 28.5 -116.5t85.5 -122.5q88 67 130.5 126t42.5 126 q0 62 -36 100.5t-106 38.5q-73 0 -109 -41t-36 -111z" />
<glyph unicode="'" horiz-adv-x="573" d="M193 825l28 527h185l-89 -527h-124z" />
<glyph unicode="(" horiz-adv-x="681" d="M160 616q0 158 22.5 292t60 228.5t90 169.5t107 120.5t117.5 76.5l68 -108q-310 -200 -310 -779q0 -584 310 -776l-68 -108q-63 31 -117.5 76.5t-107 120t-90 169t-60 228t-22.5 290.5z" />
<glyph unicode=")" horiz-adv-x="681" d="M57 -160q312 193 312 776q0 578 -312 779l70 108q52 -25 98 -61.5t91.5 -89.5t82 -124.5t64.5 -160t43.5 -204t15.5 -247.5t-15.5 -247t-43.5 -203t-64.5 -159.5t-82 -124t-91.5 -89t-98 -61.5z" />
<glyph unicode="*" horiz-adv-x="839" d="M94 1057l193 131l-193 131l49 86l209 -100l19 231h98l16 -231l209 100l51 -86l-192 -131l192 -131l-51 -84l-209 100l-16 -231h-98l-19 231l-209 -100z" />
<glyph unicode="+" d="M115 575v140h385v389h155v-389h375v-140h-375v-395h-155v395h-385z" />
<glyph unicode="," horiz-adv-x="552" d="M174 -367l27 551h186l-84 -551h-129z" />
<glyph unicode="-" horiz-adv-x="708" d="M109 578v133h489v-133h-489z" />
<glyph unicode="." horiz-adv-x="552" d="M147 106q0 56 38 93t91 37q54 0 92 -37t38 -93t-38 -92.5t-92 -36.5t-91.5 36.5t-37.5 92.5z" />
<glyph unicode="/" horiz-adv-x="1286" d="M14 -248l1071 1845h187l-1071 -1845h-187z" />
<glyph unicode="0" horiz-adv-x="1259" d="M135 688q0 150 30 273.5t89.5 216.5t155.5 144.5t221 51.5t220.5 -51.5t154.5 -144.5t88.5 -216.5t29.5 -273.5q0 -148 -29 -274t-86.5 -225t-154.5 -155.5t-223 -56.5q-127 0 -224.5 56.5t-155.5 155.5t-87 225t-29 274zM301 686q0 -124 18.5 -224t57 -176.5t103 -118.5 t151.5 -42q88 0 152 41.5t102 119t55.5 176.5t17.5 224q0 541 -327 541q-88 0 -152.5 -39t-103 -112.5t-56.5 -170t-18 -219.5z" />
<glyph unicode="1" horiz-adv-x="776" d="M61 1208l435 144h59v-1352h-160v1163l-295 -92z" />
<glyph unicode="2" d="M96 0v41l482 512q125 131 181 218.5t56 184.5q0 112 -71 191.5t-189 79.5q-122 0 -196 -82.5t-74 -196.5q0 -56 12 -112h-164q-14 55 -14 118q0 79 30 154t84.5 134.5t138.5 95.5t183 36q186 0 306 -117t120 -292q0 -57 -15.5 -113.5t-38 -101t-64 -99.5t-75 -93 t-90.5 -99l-299 -316h637v-143h-940z" />
<glyph unicode="3" horiz-adv-x="1101" d="M53 258l113 80q30 -46 62 -81t74 -66.5t95 -48.5t113 -17q139 0 227 83.5t88 217.5q0 131 -89.5 205t-252.5 74h-133v47l355 452h-560v148h811v-47l-358 -461q75 -7 144 -36.5t125.5 -79.5t90 -127.5t33.5 -172.5q0 -102 -39.5 -188.5t-105.5 -143t-152.5 -88 t-181.5 -31.5q-156 0 -273.5 79.5t-185.5 201.5z" />
<glyph unicode="4" horiz-adv-x="1122" d="M43 252v45l444 1055h164l-405 -961h475v451h160v-451h196v-139h-196v-252h-160v252h-678z" />
<glyph unicode="5" horiz-adv-x="1136" d="M80 256l110 82q139 -213 355 -213q137 0 226 83t89 218q0 134 -89.5 207.5t-254.5 73.5h-305v645h698v-144h-538v-379q100 17 192 17q73 0 140.5 -16t126.5 -49.5t102.5 -82t68.5 -118t25 -152.5q0 -102 -39.5 -188.5t-106 -143t-153 -88t-180.5 -31.5 q-160 0 -278.5 78.5t-188.5 200.5z" />
<glyph unicode="6" horiz-adv-x="1128" d="M102 434q0 31 5 62t9.5 53.5t19.5 56t21 48.5t29.5 53.5t30 48.5t37 55t35.5 53l336 488h190l-344 -496q49 18 113 18q182 0 311 -127.5t129 -314.5q0 -127 -61.5 -231.5t-167.5 -164t-232 -59.5q-192 0 -326.5 131t-134.5 326zM260 432q0 -132 87 -220.5t216 -88.5 t216 88.5t87 220.5q0 129 -87 218t-216 89t-216 -89t-87 -218z" />
<glyph unicode="7" horiz-adv-x="1026" d="M72 1208v144h903v-47l-684 -1305h-174l643 1208h-688z" />
<glyph unicode="8" horiz-adv-x="1183" d="M115 346q0 248 321 361q-124 58 -191 137.5t-67 193.5q0 157 118 246.5t296 89.5q113 0 204.5 -38t148 -115.5t56.5 -182.5q0 -216 -258 -329q322 -120 322 -365q0 -164 -129.5 -265.5t-343.5 -101.5q-215 0 -346 102t-131 267zM276 350q0 -106 83.5 -170.5t232.5 -64.5 t230 64t81 171q0 56 -23 100.5t-70 77.5t-95.5 56t-122.5 49q-75 -26 -124.5 -49t-97 -56.5t-71 -77.5t-23.5 -100zM336 1032q0 -87 62.5 -142t191.5 -108q128 51 191 106.5t63 143.5q0 96 -70.5 150.5t-181.5 54.5q-112 0 -184 -54.5t-72 -150.5z" />
<glyph unicode="9" horiz-adv-x="1128" d="M102 920q0 192 135 323t328 131q192 0 325.5 -130.5t133.5 -325.5q0 -57 -11.5 -108t-39.5 -106t-50 -89.5t-68 -102.5q-4 -5 -6 -8.5t-5 -8t-6 -8.5l-336 -487h-189l344 496q-52 -19 -114 -19q-118 0 -219 57.5t-161.5 160t-60.5 225.5zM260 922q0 -131 88 -220.5 t217 -89.5q128 0 214.5 89.5t86.5 220.5t-86 219t-215 88t-217 -88.5t-88 -218.5z" />
<glyph unicode=":" horiz-adv-x="552" d="M147 106q0 56 38 93t91 37q54 0 92 -37t38 -93t-38 -92.5t-92 -36.5t-91.5 36.5t-37.5 92.5zM147 879q0 56 37.5 92.5t91.5 36.5t92 -36.5t38 -92.5t-38 -92.5t-92 -36.5t-91.5 36.5t-37.5 92.5z" />
<glyph unicode=";" horiz-adv-x="552" d="M147 879q0 56 37.5 92.5t91.5 36.5t92 -36.5t38 -92.5t-38 -92.5t-92 -36.5t-91.5 36.5t-37.5 92.5zM174 -367l27 551h186l-84 -551h-129z" />
<glyph unicode="&#x3c;" d="M106 621v49l898 383v-148l-619 -260l619 -258v-149z" />
<glyph unicode="=" d="M135 362v140h877v-140h-877zM135 786v142h877v-142h-877z" />
<glyph unicode="&#x3e;" d="M143 238v149l619 258l-619 260v148l899 -383v-49z" />
<glyph unicode="?" horiz-adv-x="911" d="M92 1087q40 137 136 212t231 75q151 0 255.5 -96.5t104.5 -245.5q0 -95 -48.5 -170.5t-145.5 -161.5q-44 -40 -62.5 -58t-42.5 -46.5t-32.5 -51.5t-8.5 -50q0 -21 10 -66h-137q-20 42 -20 90q0 37 12 70t38 66t50 56.5t64 59.5q90 84 124.5 133.5t34.5 118.5 q0 91 -57.5 149t-142.5 58q-79 0 -139.5 -50t-90.5 -147zM301 106q0 56 38.5 93t90.5 37q55 0 93 -37t38 -93t-38 -92.5t-93 -36.5q-52 0 -90.5 36.5t-38.5 92.5z" />
<glyph unicode="@" horiz-adv-x="1888" d="M98 504q0 238 116.5 431.5t316 302t438.5 108.5q173 0 326.5 -60.5t261.5 -162.5t170.5 -242t62.5 -295q0 -240 -145.5 -376t-378.5 -136h-49v133q-47 -73 -131 -114.5t-181 -41.5q-176 0 -291.5 124.5t-115.5 311.5q0 186 115.5 310.5t293.5 124.5q91 0 170.5 -36 t126.5 -100v119h148v-692q136 11 215.5 107.5t79.5 265.5q0 131 -49.5 246.5t-137.5 198.5t-214 131t-273 48q-207 0 -373 -90t-260 -251t-94 -363q0 -152 56 -284t151.5 -224.5t227.5 -145.5t280 -53q142 0 266 45l28 -123q-140 -55 -309 -55q-174 0 -330.5 64.5 t-270.5 175t-180.5 266.5t-66.5 332zM659 487q0 -128 77.5 -209t195.5 -81q108 0 186 74.5t78 217.5q0 142 -77.5 216.5t-186.5 74.5q-118 0 -195.5 -82.5t-77.5 -210.5z" />
<glyph unicode="A" horiz-adv-x="1357" d="M63 0l586 1374h60l585 -1374h-170l-114 274h-664l-115 -274h-168zM408 418h540l-270 665z" />
<glyph unicode="B" horiz-adv-x="1261" d="M186 0v1352h465q177 0 281 -95.5t104 -246.5q0 -171 -129 -267q126 -37 195 -130t69 -224q0 -171 -115.5 -280t-312.5 -109h-557zM346 143h381q134 0 207.5 68.5t73.5 181.5q0 112 -74 181t-207 69h-381v-500zM346 788h289q115 0 176 57t61 154q0 96 -60.5 152.5 t-176.5 56.5h-289v-420z" />
<glyph unicode="C" horiz-adv-x="1464" d="M98 676q0 194 93.5 354.5t255 252t354.5 91.5q180 0 327 -79t234 -212l-119 -94q-77 113 -189.5 175.5t-250.5 62.5q-113 0 -213 -42t-171.5 -115t-113 -175.5t-41.5 -218.5t41.5 -218.5t113 -175.5t171.5 -115t213 -42q138 0 250.5 62t189.5 175l119 -94 q-84 -132 -232.5 -211.5t-328.5 -79.5q-144 0 -274 54t-224.5 147t-149.5 223t-55 275z" />
<glyph unicode="D" horiz-adv-x="1421" d="M186 0v1352h402q169 0 308 -50t232 -139.5t144 -213.5t51 -271q0 -145 -51 -269t-144 -215t-232 -142.5t-308 -51.5h-402zM346 143h240q133 0 241.5 41t180 113t110.5 169.5t39 211.5q0 237 -152.5 383.5t-418.5 146.5h-240v-1065z" />
<glyph unicode="E" horiz-adv-x="1159" d="M186 0v1352h867v-144h-707v-413h541v-144h-541v-508h731v-143h-891z" />
<glyph unicode="F" horiz-adv-x="1073" d="M186 0v1352h846v-144h-686v-465h569v-145h-569v-598h-160z" />
<glyph unicode="G" horiz-adv-x="1527" d="M98 676q0 146 55 275.5t149 222t224 146.5t275 54q171 0 313.5 -72.5t237.5 -203.5l-121 -94q-77 107 -186 165t-244 58q-233 0 -385 -157t-152 -392q0 -156 69.5 -283.5t194.5 -200.5t281 -73q147 0 264 65.5t187 175.5v183h-461v143h620v-360q-91 -160 -255 -255.5 t-363 -95.5q-146 0 -276 54.5t-224 147.5t-148.5 222.5t-54.5 274.5z" />
<glyph unicode="H" horiz-adv-x="1449" d="M186 0v1352h160v-557h758v557h160v-1352h-160v651h-758v-651h-160z" />
<glyph unicode="I" horiz-adv-x="530" d="M186 0v1352h160v-1352h-160z" />
<glyph unicode="J" horiz-adv-x="763" d="M49 0v137q83 -12 148 -12q109 0 166 44.5t57 158.5v1024h160v-1039q0 -170 -95 -253t-258 -83q-76 0 -178 23z" />
<glyph unicode="K" horiz-adv-x="1296" d="M186 0v1352h160v-1352h-160zM365 725l608 627h205l-605 -627l660 -725h-203z" />
<glyph unicode="L" horiz-adv-x="1036" d="M186 0v1352h160v-1209h641v-143h-801z" />
<glyph unicode="M" horiz-adv-x="1615" d="M186 0v1374h58l563 -780l567 780h56v-1374h-160v969l-432 -586h-58l-434 590v-973h-160z" />
<glyph unicode="N" horiz-adv-x="1449" d="M186 0v1374h58l860 -1038v1016h160v-1375h-58l-860 1037v-1014h-160z" />
<glyph unicode="O" horiz-adv-x="1599" d="M98 676q0 194 93.5 354.5t254.5 252t353 91.5q191 0 352 -91.5t255.5 -252t94.5 -354.5t-94.5 -355t-255.5 -252.5t-352 -91.5q-144 0 -274 54.5t-223.5 147.5t-148.5 222.5t-55 274.5zM264 678q0 -237 153 -395t384 -158q150 0 272.5 72t192 199t69.5 282 q0 234 -153 391.5t-381 157.5q-231 0 -384 -157t-153 -392z" />
<glyph unicode="P" horiz-adv-x="1173" d="M186 0v1352h476q197 0 314.5 -109t117.5 -282q0 -174 -117.5 -285t-314.5 -111h-316v-565h-160zM346 709h311q130 0 200.5 68.5t70.5 180.5q0 111 -71 180.5t-200 69.5h-311v-499z" />
<glyph unicode="Q" horiz-adv-x="1599" d="M98 676q0 194 93.5 354.5t254.5 252t353 91.5q191 0 352 -91.5t255.5 -252t94.5 -354.5q0 -181 -82 -332.5t-223 -247.5q143 -188 323.5 -281.5t413.5 -93.5q72 0 197 11v-127q-119 -21 -217 -21q-264 0 -478.5 113.5t-369.5 331.5q-129 -52 -266 -52q-144 0 -274 54.5 t-223.5 147.5t-148.5 222.5t-55 274.5zM264 678q0 -236 153.5 -394.5t383.5 -158.5q228 0 381 158t153 393q0 155 -69 281t-192 198t-275 72q-230 0 -382.5 -157t-152.5 -392z" />
<glyph unicode="R" horiz-adv-x="1273" d="M186 0v1352h476q197 0 314.5 -109t117.5 -282q0 -137 -76 -237t-209 -138l432 -586h-186l-420 567h-289v-567h-160zM346 711h309q130 0 201.5 67.5t71.5 179.5q0 111 -71.5 180.5t-201.5 69.5h-309v-497z" />
<glyph unicode="S" horiz-adv-x="1142" d="M84 268l119 88q152 -231 377 -231q121 0 196.5 61.5t75.5 163.5q0 45 -15 80t-49.5 63.5t-67.5 47.5t-93 47l-152 71q-67 32 -115.5 63t-95 74.5t-70.5 100.5t-24 125q0 104 56.5 185.5t149 124t202.5 42.5q134 0 246 -63t177 -166l-116 -88q-54 81 -135.5 125.5 t-174.5 44.5q-101 0 -170 -51t-69 -146q0 -36 12 -66t27.5 -49.5t49.5 -42t57 -34.5t71 -35l149 -72q160 -76 238 -162t78 -215q0 -168 -123 -272.5t-313 -104.5q-159 0 -289 77.5t-209 213.5z" />
<glyph unicode="T" horiz-adv-x="1189" d="M39 1208v144h1112v-144h-477v-1208h-160v1208h-475z" />
<glyph unicode="U" horiz-adv-x="1411" d="M168 537v815h160v-826q0 -132 51.5 -224t135.5 -134.5t192 -42.5q165 0 269.5 102.5t104.5 298.5v826h160v-815q0 -132 -40.5 -239t-112 -176.5t-169 -107t-212.5 -37.5q-157 0 -277.5 64t-191 192t-70.5 304z" />
<glyph unicode="V" horiz-adv-x="1357" d="M63 1352h177l440 -1061l438 1061h176l-585 -1375h-60z" />
<glyph unicode="W" horiz-adv-x="2183" d="M92 1352h176l373 -1030l422 1052h57l422 -1050l373 1028h174l-512 -1375h-57l-428 1074l-428 -1074h-58z" />
<glyph unicode="X" horiz-adv-x="1226" d="M61 0l465 692l-432 660h185l335 -527l334 527h185l-426 -662l458 -690h-186l-365 555l-366 -555h-187z" />
<glyph unicode="Y" horiz-adv-x="1261" d="M82 1352h180l369 -635l370 635h179l-469 -793v-559h-160v559z" />
<glyph unicode="Z" horiz-adv-x="1206" d="M66 0v47l815 1161h-727v144h981v-47l-820 -1162h822v-143h-1071z" />
<glyph unicode="[" horiz-adv-x="702" d="M207 -268v1761h391v-139h-238v-1479h238v-143h-391z" />
<glyph unicode="\" horiz-adv-x="1286" d="M14 1597h187l1071 -1845h-187z" />
<glyph unicode="]" horiz-adv-x="702" d="M102 -125h240v1479h-240v139h392v-1761h-392v143z" />
<glyph unicode="^" horiz-adv-x="1048" d="M123 582l373 790h57l373 -790h-164l-238 508l-237 -508h-164z" />
<glyph unicode="_" horiz-adv-x="1036" d="M88 -154h858v-133h-858v133z" />
<glyph unicode="`" horiz-adv-x="489" d="M61 1569v28h193l174 -438h-121z" />
<glyph unicode="a" horiz-adv-x="1081" d="M90 258q0 126 98 202.5t261 76.5h315v86q0 123 -64.5 187t-177.5 64q-90 0 -160 -40t-131 -119l-104 86q68 110 174 164.5t231 54.5q176 0 283 -105.5t107 -300.5v-614h-148v129q-55 -73 -141 -112.5t-195 -39.5q-153 0 -250.5 76.5t-97.5 204.5zM252 266 q0 -76 59 -116.5t148 -40.5q125 0 215 79t90 195v25h-297q-105 0 -160 -36t-55 -106z" />
<glyph unicode="b" horiz-adv-x="1294" d="M174 0v1536h158v-684q60 78 157 123t209 45q140 0 253.5 -68.5t177 -188t63.5 -265.5q0 -221 -140 -371t-352 -150q-117 0 -218.5 48.5t-159.5 132.5v-158h-148zM330 498q0 -95 29.5 -168.5t79.5 -117.5t110 -66.5t127 -22.5q154 0 254 107t100 270q0 162 -100.5 268 t-253.5 106q-67 0 -127.5 -22.5t-110 -66.5t-79 -118t-29.5 -169z" />
<glyph unicode="c" horiz-adv-x="1128" d="M102 500q0 143 69.5 262.5t190 188.5t263.5 69q131 0 237 -58t174 -159l-112 -90q-122 161 -297 161q-156 0 -259.5 -108t-103.5 -266q0 -159 103.5 -268t259.5 -109q174 0 295 160l112 -88q-68 -101 -173.5 -159.5t-235.5 -58.5q-143 0 -263.5 69t-190 189.5 t-69.5 264.5z" />
<glyph unicode="d" horiz-adv-x="1294" d="M102 498q0 146 63.5 265.5t177 188t253.5 68.5q113 0 211 -45.5t158 -124.5v686h157v-1536h-149v158q-58 -85 -159 -133t-218 -48q-140 0 -253.5 69t-177 188t-63.5 264zM264 500q0 -163 100 -270t254 -107q67 0 127.5 22.5t111 66t80.5 118t30 168.5t-30 168.5 t-80.5 118.5t-111 66.5t-127.5 22.5q-153 0 -253.5 -106t-100.5 -268z" />
<glyph unicode="e" horiz-adv-x="1169" d="M102 498q0 143 67 263t184.5 189.5t258.5 69.5q194 0 324.5 -127t130.5 -324q0 -64 -12 -118h-789q15 -148 116.5 -238t250.5 -90q170 0 305 135l92 -106q-165 -175 -399 -175q-225 0 -377 150.5t-152 370.5zM272 590h633q-1 133 -87 210t-210 77q-126 0 -218 -79 t-118 -208z" />
<glyph unicode="f" horiz-adv-x="620" d="M55 856v141h144v238q0 164 88.5 244t240.5 80q62 0 125 -17v-133q-49 6 -88 6q-101 0 -155 -42t-54 -148v-228h250v-141h-250v-856h-157v856h-144z" />
<glyph unicode="g" horiz-adv-x="1304" d="M115 514q0 217 139.5 361.5t349.5 144.5q119 0 220 -48t159 -134v159h150v-901q0 -228 -132.5 -357.5t-353.5 -129.5q-145 0 -265.5 54.5t-203.5 137.5l92 111q85 -74 173 -116t200 -42q155 0 243.5 85.5t88.5 248.5v88q-60 -78 -159 -122t-212 -44q-211 0 -350 143 t-139 361zM274 512q0 -157 100.5 -256.5t254.5 -99.5q67 0 128 21.5t111 63.5t79.5 112.5t29.5 160.5t-30 160.5t-80 112t-110.5 62.5t-127.5 21q-153 0 -254 -100.5t-101 -257.5z" />
<glyph unicode="h" horiz-adv-x="1159" d="M174 0v1536h158v-651q109 135 299 135q172 0 270 -108t98 -285v-627h-157v606q0 120 -67 194t-181 74q-115 0 -188.5 -75.5t-73.5 -192.5v-606h-158z" />
<glyph unicode="i" horiz-adv-x="503" d="M135 1378q0 47 35 81t84 34q47 0 82 -34t35 -81q0 -49 -34.5 -81.5t-82.5 -32.5q-50 0 -84.5 32.5t-34.5 81.5zM174 0v997h158v-997h-158z" />
<glyph unicode="j" horiz-adv-x="503" d="M-123 -242q52 -6 92 -6q98 0 151.5 43.5t53.5 147.5v1054h158v-1065q0 -163 -89 -243t-239 -80q-68 0 -127 16v133zM135 1378q0 47 35 81t84 34q47 0 82 -34t35 -81q0 -49 -34.5 -81.5t-82.5 -32.5q-50 0 -84.5 32.5t-34.5 81.5z" />
<glyph unicode="k" horiz-adv-x="1036" d="M174 0v1536h158v-1536h-158zM348 561l416 436h207l-432 -438l471 -559h-203z" />
<glyph unicode="l" horiz-adv-x="503" d="M174 0v1536h158v-1536h-158z" />
<glyph unicode="m" horiz-adv-x="1789" d="M174 0v997h148v-104q111 127 296 127q109 0 187 -45.5t121 -126.5q55 79 143 125.5t199 46.5q171 0 266.5 -108t95.5 -285v-627h-157v606q0 121 -62.5 194.5t-173.5 73.5q-112 0 -184 -73.5t-72 -179.5v-621h-158v606q0 120 -64 194t-173 74q-114 0 -184 -74.5 t-70 -193.5v-606h-158z" />
<glyph unicode="n" horiz-adv-x="1159" d="M174 0v997h148v-106q116 129 307 129q174 0 272 -108t98 -285v-627h-157v608q0 120 -67 193t-181 73q-115 0 -188.5 -74.5t-73.5 -191.5v-608h-158z" />
<glyph unicode="o" horiz-adv-x="1249" d="M102 500q0 219 151.5 369.5t371.5 150.5q143 0 262.5 -68.5t189.5 -188t70 -263.5q0 -143 -70 -262.5t-190.5 -188.5t-263.5 -69q-107 1 -203 41.5t-166 109t-111 165t-41 204.5zM264 498q0 -159 102 -266t257 -107t258.5 107.5t103.5 265.5q0 161 -103 268.5t-257 107.5 q-155 0 -259 -108q-102 -106 -102 -262v-6z" />
<glyph unicode="p" horiz-adv-x="1294" d="M174 -369v1366h148v-159q58 86 158 134t218 48q141 0 254.5 -68.5t176.5 -187.5t63 -264q0 -146 -63.5 -265.5t-177 -188.5t-253.5 -69q-109 0 -207 44t-159 122v-512h-158zM330 500q0 -95 29.5 -169t79 -118.5t110 -67t127.5 -22.5q153 0 253.5 106.5t100.5 268.5 q0 163 -100 269.5t-254 106.5q-67 0 -127 -22t-110 -66t-79.5 -117.5t-29.5 -168.5z" />
<glyph unicode="q" horiz-adv-x="1294" d="M102 500q0 145 63.5 264t177 187.5t253.5 68.5q118 0 218.5 -48t158.5 -134v159h149v-1366h-157v514q-59 -79 -158.5 -123.5t-210.5 -44.5q-140 0 -253.5 69t-177 188.5t-63.5 265.5zM264 498q0 -162 100.5 -268.5t253.5 -106.5q67 0 127.5 22.5t111 67t80.5 119 t30 168.5t-30 168t-80.5 118t-111 66t-127.5 22q-153 0 -253.5 -107t-100.5 -269z" />
<glyph unicode="r" horiz-adv-x="741" d="M174 0v997h148v-141q55 72 136.5 111t172.5 39q29 0 74 -9v-139h-60q-129 0 -221 -78.5t-92 -214.5v-565h-158z" />
<glyph unicode="s" horiz-adv-x="929" d="M80 172l100 104q71 -74 137 -113.5t150 -39.5q81 0 135.5 38t54.5 103q0 31 -11.5 54.5t-39.5 43t-52.5 31.5t-70.5 31l-96 41q-125 52 -186.5 113.5t-61.5 162.5q0 130 96.5 204.5t239.5 74.5q206 0 334 -158l-96 -98q-107 110 -246 110q-73 0 -119.5 -32.5t-46.5 -91.5 q0 -49 36.5 -79.5t125.5 -66.5l92 -39q140 -59 202 -125.5t62 -169.5q0 -139 -101.5 -216t-248.5 -77q-124 0 -224 54t-165 141z" />
<glyph unicode="t" horiz-adv-x="780" d="M49 856v141h168v273h158v-273h311v-141h-311v-545q0 -106 54.5 -148t156.5 -42q56 0 133 12v-133q-98 -23 -166 -23q-155 0 -245.5 80t-90.5 244v555h-168z" />
<glyph unicode="u" d="M162 397v600h155v-610q0 -120 74 -192t184 -72q108 0 181 72t73 192v610h158v-600q0 -188 -118 -304t-294 -116q-178 0 -295.5 115.5t-117.5 304.5z" />
<glyph unicode="v" horiz-adv-x="1103" d="M53 997h168l332 -751l330 751h168l-469 -1020h-58z" />
<glyph unicode="w" horiz-adv-x="1742" d="M53 997h168l289 -739l332 762h59l336 -756l283 733h168l-420 -1020h-58l-340 754l-338 -754h-55z" />
<glyph unicode="x" horiz-adv-x="1017" d="M41 0l375 520l-344 477h182l256 -362l254 362h182l-348 -479l377 -518h-182l-285 403l-283 -403h-184z" />
<glyph unicode="y" horiz-adv-x="1103" d="M53 997h170l330 -794l330 794h168l-492 -1136q-58 -132 -140 -192t-198 -60q-75 0 -153 20v133q78 -10 120 -10q78 0 132.5 35t93.5 125l53 119z" />
<glyph unicode="z" horiz-adv-x="929" d="M55 0v47l570 809h-523v141h766v-47l-571 -811h577v-139h-819z" />
<glyph unicode="{" horiz-adv-x="813" d="M109 543v139h116q125 0 125 119q0 39 -26.5 193t-26.5 227q0 272 283 272h129v-139h-101q-159 0 -159 -172q0 -56 25.5 -199t25.5 -197q0 -68 -26.5 -108t-82.5 -66q56 -26 82.5 -66t26.5 -108q0 -54 -25.5 -196t-25.5 -199q0 -172 159 -172h101v-139h-129 q-283 0 -283 272q0 73 26.5 227t26.5 193q0 119 -125 119h-116z" />
<glyph unicode="|" horiz-adv-x="679" d="M272 -248v1845h136v-1845h-136z" />
<glyph unicode="}" horiz-adv-x="813" d="M102 -129h103q160 0 160 172q0 57 -26 199t-26 196q0 68 26.5 108t82.5 66q-56 26 -82.5 66t-26.5 108q0 54 26 197t26 199q0 172 -160 172h-103v139h131q281 0 281 -272q0 -73 -25.5 -227t-25.5 -193q0 -119 125 -119h117v-139h-117q-125 0 -125 -119q0 -39 25.5 -193 t25.5 -227q0 -272 -281 -272h-131v139z" />
<glyph unicode="~" d="M125 606q0 91 53 155t141 64q83 0 173 -55l192 -117q90 -51 127 -51t57.5 25.5t20.5 64.5v39h129q4 -16 4 -55q0 -93 -54.5 -155t-144.5 -62q-81 0 -170 53l-192 117q-84 53 -125 53q-37 0 -58.5 -25.5t-21.5 -66.5v-39h-129q0 3 -1 23t-1 32z" />
<glyph unicode="&#xa1;" horiz-adv-x="624" d="M182 891q0 56 37.5 92.5t91.5 36.5q55 0 92 -36.5t37 -92.5q0 -57 -37 -93t-92 -36q-54 0 -91.5 36t-37.5 93zM215 -369l31 938h131l31 -938h-193z" />
<glyph unicode="&#xa2;" horiz-adv-x="1134" d="M74 672q0 190 118 332t300 178v354h157v-346q113 -12 204 -68.5t153 -146.5l-109 -88q-101 135 -248 155v-743q142 20 246 158l109 -90q-62 -90 -153 -146.5t-202 -68.5v-345h-157v353q-182 36 -300 179t-118 333zM236 672q0 -130 70.5 -228.5t185.5 -134.5v723 q-115 -36 -185.5 -134t-70.5 -226z" />
<glyph unicode="&#xa3;" horiz-adv-x="1083" d="M117 0v41q272 170 272 391q0 34 -6 68h-246v139h197q-12 25 -43 84t-46.5 93.5t-30.5 90.5t-15 109q0 160 110 259t281 99q156 0 265 -86.5t153 -247.5l-142 -53q-75 240 -268 240q-110 0 -173 -67.5t-63 -168.5q0 -58 20.5 -113.5t62 -129.5t57.5 -109h325v-139h-282 q4 -40 4 -66q0 -178 -123 -295h565v-139h-874z" />
<glyph unicode="&#xa4;" horiz-adv-x="1316" d="M55 168l226 227q-97 121 -97 281q0 157 97 285l-226 225l97 94l227 -227q127 86 278 86q157 0 279 -86l229 227l97 -94l-226 -225q99 -127 99 -285q0 -156 -99 -283l226 -225l-95 -94l-229 227q-128 -88 -283 -88q-151 0 -276 88l-227 -227zM346 674q0 -134 88 -225 t221 -91q136 0 227 91t91 225q0 137 -91 229t-225 92t-222.5 -92t-88.5 -229z" />
<glyph unicode="&#xa5;" horiz-adv-x="1130" d="M18 1352h181l368 -531l369 531h178l-430 -615h363v-139h-400v-188h400v-142h-400v-268h-160v268h-397v142h397v188h-397v139h359z" />
<glyph unicode="&#xa6;" horiz-adv-x="679" d="M272 -248v615h136v-615h-136zM272 983v614h136v-614h-136z" />
<glyph unicode="&#xa7;" horiz-adv-x="1185" d="M72 803q0 100 68 169t188 89q-2 10 -2 29q0 123 89.5 206.5t241.5 83.5q209 0 349 -180l-117 -94q-114 129 -240 129q-74 0 -118 -37t-44 -102q0 -23 4.5 -43.5t18 -42t22 -34.5t33.5 -36.5t34.5 -32.5t43 -36.5t41.5 -34.5l215 -181q110 -87 161.5 -159t51.5 -160 q0 -101 -68 -170.5t-188 -89.5q2 -8 2 -27q0 -125 -89 -209t-241 -84q-208 0 -348 181l117 96q112 -129 240 -129q74 0 116.5 36t42.5 103q0 20 -5 39.5t-10 34t-20.5 34.5t-22.5 30t-30.5 31.5t-31 28t-37.5 31.5t-37 31l-217 178q-110 91 -161.5 163t-51.5 159zM233 799 q0 -48 31 -86t127 -117l215 -178q59 -49 87 -74t65 -65.5t57 -77.5q68 19 102.5 49.5t34.5 87.5q0 49 -31 87t-126 116l-217 180q-81 66 -129.5 114t-79.5 101q-67 -19 -101.5 -50t-34.5 -87z" />
<glyph unicode="&#xa8;" horiz-adv-x="780" d="M61 1378q0 45 34.5 78t78.5 33q47 0 80 -32.5t33 -78.5q0 -44 -33 -76t-80 -32q-44 0 -78.5 32.5t-34.5 75.5zM496 1378q0 45 34 78t78 33q47 0 80 -32.5t33 -78.5q0 -44 -33 -76t-80 -32q-43 0 -77.5 32t-34.5 76z" />
<glyph unicode="&#xa9;" horiz-adv-x="1599" d="M98 676q0 146 56.5 276t151 222t223.5 146t270 54q142 0 271 -54t224 -146.5t151 -222.5t56 -275t-56 -275.5t-151 -223t-224 -146.5t-271 -54q-189 0 -350 91.5t-256 252.5t-95 355zM221 676q0 -167 78 -302t210 -209.5t290 -74.5q117 0 223 44t184.5 120.5t125 186.5 t46.5 235q0 167 -78.5 302t-210.5 209.5t-290 74.5t-290 -74.5t-210 -209.5t-78 -302zM428 676q0 167 113.5 280t279.5 113q93 0 172.5 -42.5t136.5 -117.5l-100 -86q-85 113 -207 113q-107 0 -177.5 -74.5t-70.5 -185.5q0 -108 70.5 -183t175.5 -75q127 0 209 110l100 -86 q-57 -74 -137 -115.5t-174 -41.5q-165 0 -278 113t-113 278z" />
<glyph unicode="&#xaa;" horiz-adv-x="745" d="M84 672q0 85 62.5 133.5t168.5 48.5h174v39q0 66 -35.5 99.5t-101.5 33.5q-86 0 -174 -78l-69 88q111 111 258 111q119 0 188.5 -67.5t69.5 -194.5v-385h-125v63q-75 -78 -197 -78q-99 0 -159 51.5t-60 135.5zM225 676q0 -40 31.5 -61t79.5 -21q66 0 109.5 39t43.5 102 v21h-153q-54 0 -82.5 -22t-28.5 -58z" />
<glyph unicode="&#xab;" horiz-adv-x="1032" d="M78 530v48l364 387l103 -93l-289 -317l289 -322l-103 -88zM483 530v48l365 387l102 -93l-288 -317l288 -322l-102 -88z" />
<glyph unicode="&#xac;" d="M113 575v140h856v-518h-158v378h-698z" />
<glyph unicode="&#xad;" horiz-adv-x="708" d="M109 578v133h489v-133h-489z" />
<glyph unicode="&#xae;" horiz-adv-x="1167" d="M88 891q0 138 67.5 255t182 185t248.5 68t247.5 -68t179.5 -185t66 -255q0 -137 -66 -253.5t-179.5 -184.5t-247.5 -68t-248.5 68t-182 184.5t-67.5 253.5zM195 893q0 -170 113.5 -288t277.5 -118q163 0 277 117t114 289q0 170 -114 286.5t-277 116.5q-164 0 -277.5 -117 t-113.5 -286zM387 635v514h207q83 0 135.5 -47t52.5 -125q0 -97 -84 -143l144 -199h-133l-129 172h-74v-172h-119zM506 909h86q30 0 50 19t20 47q0 31 -19.5 50t-50.5 19h-86v-135z" />
<glyph unicode="&#xaf;" horiz-adv-x="686" d="M61 1315v127h564v-127h-564z" />
<glyph unicode="&#xb0;" horiz-adv-x="737" d="M63 1073q0 125 89.5 213t216.5 88t216 -88t89 -213q0 -126 -88.5 -213.5t-216.5 -87.5t-217 87.5t-89 213.5zM197 1073q0 -74 50 -125t122 -51q74 0 124 51t50 125t-50 125t-124 51q-72 0 -122 -51t-50 -125z" />
<glyph unicode="&#xb1;" d="M135 0v139h877v-139h-877zM135 635v139h361v324h157v-324h359v-139h-359v-328h-157v328h-361z" />
<glyph unicode="&#xb2;" horiz-adv-x="755" d="M72 745v31l303 326q68 75 99.5 127t31.5 108q0 63 -39 106.5t-102 43.5q-66 0 -106 -43.5t-40 -112.5q0 -15 4 -65h-133q-8 33 -8 73q0 109 78.5 191t204.5 82q121 0 199.5 -75t78.5 -189q0 -86 -45.5 -158.5t-136.5 -167.5l-146 -154h359v-123h-602z" />
<glyph unicode="&#xb3;" horiz-adv-x="724" d="M39 915l94 68q77 -127 199 -127q76 0 124 45t48 119q0 71 -50 110t-145 39h-84v37l199 269h-326v122h527v-38l-205 -277q41 -8 79 -27.5t71 -50.5t53 -79t20 -105q0 -129 -89.5 -209t-217.5 -80q-102 0 -178 51t-119 133z" />
<glyph unicode="&#xb4;" horiz-adv-x="489" d="M61 1159l175 438h192v-28l-246 -410h-121z" />
<glyph unicode="&#xb5;" horiz-adv-x="1212" d="M174 -369v1366h158v-596q0 -123 72 -200.5t182 -77.5t183 77.5t73 200.5v596h157v-718q0 -80 28 -116t83 -36q18 0 59 6v-133q-61 -14 -106 -14q-145 0 -193 120q-47 -61 -117.5 -95t-156.5 -34q-168 0 -264 117v-463h-158z" />
<glyph unicode="&#xb6;" horiz-adv-x="1155" d="M80 920q0 196 137 314t350 118h123v-869h-123q-210 0 -348.5 121t-138.5 316zM467 -233q111 -13 133 -13q103 0 158 46t55 161v1391h158v-1403q0 -175 -90.5 -257.5t-249.5 -82.5q-74 0 -164 22v136z" />
<glyph unicode="&#xb7;" horiz-adv-x="552" d="M147 643q0 56 37.5 92.5t91.5 36.5t92 -36.5t38 -92.5t-38 -92.5t-92 -36.5t-91.5 36.5t-37.5 92.5z" />
<glyph unicode="&#xb8;" horiz-adv-x="532" d="M61 -258q65 -8 115 -8q72 0 116 33t44 100q0 79 -68 151l68 35q62 -30 98.5 -84.5t36.5 -124.5q0 -100 -72 -167.5t-196 -67.5q-70 0 -142 20v113z" />
<glyph unicode="&#xb9;" horiz-adv-x="722" d="M96 745v123h215v607h-205v122h343v-729h184v-123h-537z" />
<glyph unicode="&#xba;" horiz-adv-x="833" d="M82 815q0 139 97 234.5t237 95.5q139 0 237.5 -95.5t98.5 -234.5t-98.5 -234.5t-237.5 -95.5q-140 0 -237 95.5t-97 234.5zM217 815q0 -91 56 -150t143 -59q89 0 144.5 59t55.5 150q0 92 -55.5 150.5t-144.5 58.5q-88 0 -143.5 -58.5t-55.5 -150.5z" />
<glyph unicode="&#xbb;" horiz-adv-x="1032" d="M80 233l291 322l-291 317l104 93l363 -387v-48l-363 -385zM485 233l291 322l-291 317l105 93l362 -387v-48l-362 -385z" />
<glyph unicode="&#xbc;" horiz-adv-x="1816" d="M96 500v123h215v606h-205v123h343v-729h184v-123h-537zM508 0l774 1352h141l-774 -1352h-141zM1120 150v36l266 666h138l-238 -590h258v266h125v-266h115v-112h-115v-150h-125v150h-424z" />
<glyph unicode="&#xbd;" horiz-adv-x="1894" d="M96 500v123h215v606h-205v123h343v-729h184v-123h-537zM508 0l774 1352h141l-774 -1352h-141zM1210 0v31l303 325q68 75 100 127.5t32 108.5q0 63 -39.5 106t-102.5 43q-66 0 -105.5 -43t-39.5 -112q0 -16 4 -66h-133q-8 33 -8 74q0 109 78 190.5t204 81.5q121 0 200 -75 t79 -189q0 -86 -45.5 -158.5t-137.5 -167.5l-145 -153h358v-123h-602z" />
<glyph unicode="&#xbe;" horiz-adv-x="1746" d="M39 670l94 67q77 -127 199 -127q76 0 124 45t48 119q0 71 -50.5 110.5t-144.5 39.5h-84v37l199 268h-326v123h527v-39l-205 -277q41 -8 79 -27.5t71 -50.5t53 -79t20 -105q0 -129 -89.5 -209t-217.5 -80q-102 0 -178 51.5t-119 133.5zM438 0l774 1352h142l-774 -1352 h-142zM1051 150v36l266 666h137l-237 -590h258v266h124v-266h115v-112h-115v-150h-124v150h-424z" />
<glyph unicode="&#xbf;" horiz-adv-x="909" d="M90 -45q0 69 28 131.5t66 106t101 100.5q80 72 112.5 115.5t32.5 93.5q0 31 -8 67h137q21 -53 21 -90t-13 -71.5t-41 -69t-50 -57t-62 -58.5q-60 -57 -89 -90t-51 -78t-22 -94q0 -89 60 -148t145 -59q79 0 138 50t91 147l131 -55q-38 -136 -134 -211.5t-230 -75.5 q-152 0 -257.5 98t-105.5 248zM348 891q0 56 37.5 92.5t91.5 36.5t91.5 -36.5t37.5 -92.5q0 -57 -37.5 -94t-91.5 -37t-91.5 37t-37.5 94z" />
<glyph unicode="&#xc0;" horiz-adv-x="1357" d="M63 0l586 1374h60l585 -1374h-170l-114 274h-664l-115 -274h-168zM375 1835v29h192l174 -381h-118zM408 418h540l-270 665z" />
<glyph unicode="&#xc1;" horiz-adv-x="1357" d="M63 0l586 1374h60l585 -1374h-170l-114 274h-664l-115 -274h-168zM408 418h540l-270 665zM621 1483l174 381h192v-29l-246 -352h-120z" />
<glyph unicode="&#xc2;" horiz-adv-x="1357" d="M63 0l586 1374h60l585 -1374h-170l-114 274h-664l-115 -274h-168zM330 1483l301 381h98l301 -381h-125l-225 221l-225 -221h-125zM408 418h540l-270 665z" />
<glyph unicode="&#xc3;" horiz-adv-x="1357" d="M63 0l586 1374h60l585 -1374h-170l-114 274h-664l-115 -274h-168zM342 1591q0 89 48.5 148t129.5 59q71 0 144 -47l69 -45q3 -2 16 -10.5t16 -10.5t13 -7.5t15.5 -7t13.5 -3.5t16 -2q30 0 45 21t15 55v37h133q2 -16 2 -54q0 -88 -48 -146t-126 -58q-71 0 -150 49l-67 41 q-6 4 -22 14.5t-23.5 14.5t-19.5 8t-23 4q-30 0 -46 -22.5t-16 -55.5v-33h-131q-4 28 -4 51zM408 418h540l-270 665z" />
<glyph unicode="&#xc4;" horiz-adv-x="1357" d="M63 0l586 1374h60l585 -1374h-170l-114 274h-664l-115 -274h-168zM328 1659q0 45 34 76.5t78 31.5q47 0 80 -31t33 -77t-33 -77.5t-80 -31.5q-44 0 -78 32t-34 77zM408 418h540l-270 665zM805 1657q0 45 34 77.5t79 32.5q46 0 79 -32t33 -78q0 -44 -33 -76.5t-79 -32.5 q-45 0 -79 32.5t-34 76.5z" />
<glyph unicode="&#xc5;" horiz-adv-x="1357" d="M63 0l586 1374h60l585 -1374h-170l-114 274h-664l-115 -274h-168zM408 418h540l-270 665zM453 1651q0 93 65 157t160 64q98 0 163.5 -64t65.5 -157t-65.5 -157t-163.5 -64q-95 0 -160 64t-65 157zM578 1651q0 -44 29.5 -73.5t72.5 -29.5t72.5 29.5t29.5 73.5t-29 74 t-73 30t-73 -30t-29 -74z" />
<glyph unicode="&#xc6;" horiz-adv-x="1681" d="M27 0l704 1352h844v-144h-660l70 -413h426v-144h-401l86 -508h503v-143h-643l-47 274h-565l-145 -274h-172zM420 418h465l-113 690z" />
<glyph unicode="&#xc7;" horiz-adv-x="1464" d="M98 676q0 194 93.5 354.5t255 252t354.5 91.5q180 0 327 -79t234 -212l-119 -94q-77 113 -189.5 175.5t-250.5 62.5q-113 0 -213 -42t-171.5 -115t-113 -175.5t-41.5 -218.5t41.5 -218.5t113 -175.5t171.5 -115t213 -42q138 0 250.5 62t189.5 175l119 -94 q-70 -110 -186.5 -184.5t-260.5 -97.5q50 -60 50 -142q0 -100 -72.5 -167.5t-196.5 -67.5q-69 0 -141 20v113q65 -8 115 -8q72 0 115.5 33t43.5 100q0 57 -34 110q-192 2 -352 94t-252.5 252t-92.5 353z" />
<glyph unicode="&#xc8;" horiz-adv-x="1159" d="M186 0v1352h867v-144h-707v-413h541v-144h-541v-508h731v-143h-891zM315 1835v29h193l174 -381h-119z" />
<glyph unicode="&#xc9;" horiz-adv-x="1159" d="M186 0v1352h867v-144h-707v-413h541v-144h-541v-508h731v-143h-891zM561 1483l174 381h193v-29l-246 -352h-121z" />
<glyph unicode="&#xca;" horiz-adv-x="1159" d="M186 0v1352h867v-144h-707v-413h541v-144h-541v-508h731v-143h-891zM270 1483l301 381h99l301 -381h-125l-225 221l-226 -221h-125z" />
<glyph unicode="&#xcb;" horiz-adv-x="1159" d="M186 0v1352h867v-144h-707v-413h541v-144h-541v-508h731v-143h-891zM268 1659q0 45 34.5 76.5t78.5 31.5q47 0 80 -31t33 -77t-33 -77.5t-80 -31.5q-44 0 -78.5 32t-34.5 77zM745 1657q0 45 34 77.5t79 32.5q46 0 79.5 -32.5t33.5 -77.5q0 -44 -33.5 -76.5t-79.5 -32.5 q-45 0 -79 32.5t-34 76.5z" />
<glyph unicode="&#xcc;" horiz-adv-x="530" d="M-37 1835v29h193l174 -381h-119zM186 0v1352h160v-1352h-160z" />
<glyph unicode="&#xcd;" horiz-adv-x="530" d="M186 0v1352h160v-1352h-160zM209 1483l174 381h192v-29l-245 -352h-121z" />
<glyph unicode="&#xce;" horiz-adv-x="530" d="M-82 1483l301 381h98l301 -381h-124l-226 221l-225 -221h-125zM186 0v1352h160v-1352h-160z" />
<glyph unicode="&#xcf;" horiz-adv-x="530" d="M-84 1659q0 45 34.5 76.5t78.5 31.5q47 0 79.5 -31t32.5 -77t-32.5 -77.5t-79.5 -31.5q-44 0 -78.5 32t-34.5 77zM186 0v1352h160v-1352h-160zM393 1657q0 45 34 77.5t79 32.5q46 0 79 -32t33 -78q0 -44 -33 -76.5t-79 -32.5q-45 0 -79 32.5t-34 76.5z" />
<glyph unicode="&#xd0;" horiz-adv-x="1421" d="M-8 561v135h194v656h402q169 0 308 -50t232 -139.5t144 -213.5t51 -271q0 -145 -51 -269t-144 -215t-232 -142.5t-308 -51.5h-402v561h-194zM346 143h240q133 0 241.5 41t180 113t110.5 169.5t39 211.5q0 237 -152.5 383.5t-418.5 146.5h-240v-512h266v-135h-266v-418z " />
<glyph unicode="&#xd1;" horiz-adv-x="1449" d="M186 0v1374h58l860 -1038v1016h160v-1375h-58l-860 1037v-1014h-160zM387 1591q0 89 48.5 148t129.5 59q71 0 144 -47l69 -45q3 -2 16 -10.5t16 -10.5t13 -7.5t15.5 -7t13.5 -3.5t16 -2q30 0 45 21t15 55v37h133q2 -16 2 -54q0 -88 -48 -146t-126 -58q-71 0 -150 49 l-67 41q-6 4 -22 14.5t-23.5 14.5t-19.5 8t-23 4q-30 0 -46 -22.5t-16 -55.5v-33h-131q-4 28 -4 51z" />
<glyph unicode="&#xd2;" horiz-adv-x="1599" d="M98 676q0 194 93.5 354.5t254.5 252t353 91.5q191 0 352 -91.5t255.5 -252t94.5 -354.5t-94.5 -355t-255.5 -252.5t-352 -91.5q-144 0 -274 54.5t-223.5 147.5t-148.5 222.5t-55 274.5zM264 678q0 -237 153 -395t384 -158q150 0 272.5 72t192 199t69.5 282 q0 234 -153 391.5t-381 157.5q-231 0 -384 -157t-153 -392zM496 1835v29h192l174 -381h-119z" />
<glyph unicode="&#xd3;" horiz-adv-x="1599" d="M98 676q0 194 93.5 354.5t254.5 252t353 91.5q191 0 352 -91.5t255.5 -252t94.5 -354.5t-94.5 -355t-255.5 -252.5t-352 -91.5q-144 0 -274 54.5t-223.5 147.5t-148.5 222.5t-55 274.5zM264 678q0 -237 153 -395t384 -158q150 0 272.5 72t192 199t69.5 282 q0 234 -153 391.5t-381 157.5q-231 0 -384 -157t-153 -392zM741 1483l174 381h193v-29l-246 -352h-121z" />
<glyph unicode="&#xd4;" horiz-adv-x="1599" d="M98 676q0 194 93.5 354.5t254.5 252t353 91.5q191 0 352 -91.5t255.5 -252t94.5 -354.5t-94.5 -355t-255.5 -252.5t-352 -91.5q-144 0 -274 54.5t-223.5 147.5t-148.5 222.5t-55 274.5zM264 678q0 -237 153 -395t384 -158q150 0 272.5 72t192 199t69.5 282 q0 234 -153 391.5t-381 157.5q-231 0 -384 -157t-153 -392zM451 1483l301 381h98l301 -381h-125l-225 221l-226 -221h-124z" />
<glyph unicode="&#xd5;" horiz-adv-x="1599" d="M98 676q0 194 93.5 354.5t254.5 252t353 91.5q191 0 352 -91.5t255.5 -252t94.5 -354.5t-94.5 -355t-255.5 -252.5t-352 -91.5q-144 0 -274 54.5t-223.5 147.5t-148.5 222.5t-55 274.5zM264 678q0 -237 153 -395t384 -158q150 0 272.5 72t192 199t69.5 282 q0 234 -153 391.5t-381 157.5q-231 0 -384 -157t-153 -392zM463 1591q0 89 48.5 148t129.5 59q70 0 143 -47l70 -45q3 -2 16 -10.5t16 -10.5t13 -7.5t15.5 -7t13.5 -3.5t16 -2q30 0 45 21t15 55v37h133q2 -16 2 -54q0 -88 -48 -146t-126 -58q-71 0 -150 49l-67 41 q-7 4 -18.5 11.5t-18.5 11.5t-16.5 9t-18 7t-17.5 2q-30 0 -45.5 -22.5t-15.5 -55.5v-33h-131q-4 28 -4 51z" />
<glyph unicode="&#xd6;" horiz-adv-x="1599" d="M98 676q0 194 93.5 354.5t254.5 252t353 91.5q191 0 352 -91.5t255.5 -252t94.5 -354.5t-94.5 -355t-255.5 -252.5t-352 -91.5q-144 0 -274 54.5t-223.5 147.5t-148.5 222.5t-55 274.5zM264 678q0 -237 153 -395t384 -158q150 0 272.5 72t192 199t69.5 282 q0 234 -153 391.5t-381 157.5q-231 0 -384 -157t-153 -392zM449 1659q0 45 34 76.5t78 31.5q47 0 80 -31t33 -77t-33 -77.5t-80 -31.5q-44 0 -78 32t-34 77zM926 1657q0 45 33.5 77.5t78.5 32.5q46 0 79.5 -32.5t33.5 -77.5q0 -44 -33.5 -76.5t-79.5 -32.5q-45 0 -78.5 32.5 t-33.5 76.5z" />
<glyph unicode="&#xd7;" d="M158 324l319 323l-319 320l96 96l319 -320l320 320l96 -96l-319 -320l319 -323l-94 -95l-322 320l-319 -320z" />
<glyph unicode="&#xd8;" horiz-adv-x="1601" d="M86 59l170 170q-158 195 -158 447q0 194 93.5 354.5t254.5 252t353 91.5q253 0 444 -155l172 172l98 -99l-170 -170q158 -195 158 -446q0 -194 -94.5 -355t-255.5 -252.5t-352 -91.5q-251 0 -445 154l-170 -170zM258 678q0 -195 107 -340l776 776q-144 119 -340 119 q-153 0 -277.5 -72.5t-195 -200t-70.5 -282.5zM459 236q145 -117 342 -117q151 0 275 73t194.5 201.5t70.5 284.5q0 193 -106 336z" />
<glyph unicode="&#xd9;" horiz-adv-x="1411" d="M168 537v815h160v-826q0 -132 51.5 -224t135.5 -134.5t192 -42.5q165 0 269.5 102.5t104.5 298.5v826h160v-815q0 -132 -40.5 -239t-112 -176.5t-169 -107t-212.5 -37.5q-157 0 -277.5 64t-191 192t-70.5 304zM399 1835v29h193l174 -381h-119z" />
<glyph unicode="&#xda;" horiz-adv-x="1411" d="M168 537v815h160v-826q0 -132 51.5 -224t135.5 -134.5t192 -42.5q165 0 269.5 102.5t104.5 298.5v826h160v-815q0 -132 -40.5 -239t-112 -176.5t-169 -107t-212.5 -37.5q-157 0 -277.5 64t-191 192t-70.5 304zM645 1483l174 381h193v-29l-246 -352h-121z" />
<glyph unicode="&#xdb;" horiz-adv-x="1411" d="M168 537v815h160v-826q0 -132 51.5 -224t135.5 -134.5t192 -42.5q165 0 269.5 102.5t104.5 298.5v826h160v-815q0 -132 -40.5 -239t-112 -176.5t-169 -107t-212.5 -37.5q-157 0 -277.5 64t-191 192t-70.5 304zM354 1483l301 381h99l301 -381h-125l-225 221l-226 -221 h-125z" />
<glyph unicode="&#xdc;" horiz-adv-x="1411" d="M168 537v815h160v-826q0 -132 51.5 -224t135.5 -134.5t192 -42.5q165 0 269.5 102.5t104.5 298.5v826h160v-815q0 -132 -40.5 -239t-112 -176.5t-169 -107t-212.5 -37.5q-157 0 -277.5 64t-191 192t-70.5 304zM352 1659q0 45 34.5 76.5t78.5 31.5q47 0 80 -31t33 -77 t-33 -77.5t-80 -31.5q-44 0 -78.5 32t-34.5 77zM829 1657q0 45 34 77.5t79 32.5q46 0 79.5 -32.5t33.5 -77.5q0 -44 -33.5 -76.5t-79.5 -32.5q-45 0 -79 32.5t-34 76.5z" />
<glyph unicode="&#xdd;" horiz-adv-x="1261" d="M82 1352h180l369 -635l370 635h179l-469 -793v-559h-160v559zM565 1483l174 381h193v-29l-246 -352h-121z" />
<glyph unicode="&#xde;" horiz-adv-x="1173" d="M186 0v1352h160v-242h316q198 0 315 -110.5t117 -290.5q0 -178 -117.5 -291t-314.5 -113h-316v-305h-160zM346 449h311q130 0 200.5 71t70.5 187q0 117 -70.5 188.5t-200.5 71.5h-311v-518z" />
<glyph unicode="&#xdf;" horiz-adv-x="1251" d="M174 0v1106q0 212 118 332.5t312 120.5q156 0 251 -80t95 -219q0 -83 -28 -160l-86 -248q-35 -103 -35 -137q0 -33 21.5 -61t43.5 -43t80 -50q5 -3 8 -5t7 -4.5t8 -4.5q76 -46 121.5 -84.5t74.5 -91t29 -115.5q0 -129 -99.5 -205t-248.5 -76q-199 0 -338 142l88 114 q113 -110 262 -110q79 0 127.5 32t48.5 95q0 17 -4.5 32t-9 26t-18.5 25t-20.5 21t-28 21t-29 18.5t-35 20.5t-35.5 20q-111 65 -165 122t-54 134q0 67 37 162l86 237q30 88 30 148q0 80 -51 129t-143 49q-116 0 -190 -80.5t-74 -232.5v-1100h-156z" />
<glyph unicode="&#xe0;" horiz-adv-x="1081" d="M90 258q0 126 98 202.5t261 76.5h315v86q0 123 -64.5 187t-177.5 64q-90 0 -160 -40t-131 -119l-104 86q68 110 174 164.5t231 54.5q176 0 283 -105.5t107 -300.5v-614h-148v129q-55 -73 -141 -112.5t-195 -39.5q-153 0 -250.5 76.5t-97.5 204.5zM223 1569v28h193 l174 -438h-121zM252 266q0 -76 59 -116.5t148 -40.5q125 0 215 79t90 195v25h-297q-105 0 -160 -36t-55 -106z" />
<glyph unicode="&#xe1;" horiz-adv-x="1081" d="M90 258q0 126 98 202.5t261 76.5h315v86q0 123 -64.5 187t-177.5 64q-90 0 -160 -40t-131 -119l-104 86q68 110 174 164.5t231 54.5q176 0 283 -105.5t107 -300.5v-614h-148v129q-55 -73 -141 -112.5t-195 -39.5q-153 0 -250.5 76.5t-97.5 204.5zM252 266 q0 -76 59 -116.5t148 -40.5q125 0 215 79t90 195v25h-297q-105 0 -160 -36t-55 -106zM475 1159l174 438h193v-28l-246 -410h-121z" />
<glyph unicode="&#xe2;" horiz-adv-x="1081" d="M90 258q0 126 98 202.5t261 76.5h315v86q0 123 -64.5 187t-177.5 64q-90 0 -160 -40t-131 -119l-104 86q68 110 174 164.5t231 54.5q176 0 283 -105.5t107 -300.5v-614h-148v129q-55 -73 -141 -112.5t-195 -39.5q-153 0 -250.5 76.5t-97.5 204.5zM205 1159l278 438h99 l276 -438h-121l-205 260l-204 -260h-123zM252 266q0 -76 59 -116.5t148 -40.5q125 0 215 79t90 195v25h-297q-105 0 -160 -36t-55 -106z" />
<glyph unicode="&#xe3;" horiz-adv-x="1081" d="M90 258q0 126 98 202.5t261 76.5h315v86q0 123 -64.5 187t-177.5 64q-90 0 -160 -40t-131 -119l-104 86q68 110 174 164.5t231 54.5q176 0 283 -105.5t107 -300.5v-614h-148v129q-55 -73 -141 -112.5t-195 -39.5q-153 0 -250.5 76.5t-97.5 204.5zM209 1298q0 93 46.5 153 t127.5 60q77 0 139 -53l53 -45q53 -47 87 -47q57 0 57 84v35h131q2 -18 2 -51q0 -92 -46.5 -152.5t-127.5 -60.5q-77 0 -139 53l-54 45q-3 2 -13 10.5t-13 10.5t-11 8.5t-12 8t-11 4.5t-13 4t-13 1q-57 0 -57 -84v-35h-131q-2 18 -2 51zM252 266q0 -76 59 -116.5t148 -40.5 q125 0 215 79t90 195v25h-297q-105 0 -160 -36t-55 -106z" />
<glyph unicode="&#xe4;" horiz-adv-x="1081" d="M90 258q0 126 98 202.5t261 76.5h315v86q0 123 -64.5 187t-177.5 64q-90 0 -160 -40t-131 -119l-104 86q68 110 174 164.5t231 54.5q176 0 283 -105.5t107 -300.5v-614h-148v129q-55 -73 -141 -112.5t-195 -39.5q-153 0 -250.5 76.5t-97.5 204.5zM199 1378q0 45 34 78 t78 33q47 0 80 -32.5t33 -78.5q0 -44 -33 -76t-80 -32q-43 0 -77.5 32t-34.5 76zM252 266q0 -76 59 -116.5t148 -40.5q125 0 215 79t90 195v25h-297q-105 0 -160 -36t-55 -106zM633 1378q0 45 34 78t78 33q47 0 80 -32.5t33 -78.5q0 -44 -33 -76t-80 -32q-43 0 -77.5 32 t-34.5 76z" />
<glyph unicode="&#xe5;" horiz-adv-x="1081" d="M90 258q0 126 98 202.5t261 76.5h315v86q0 123 -64.5 187t-177.5 64q-90 0 -160 -40t-131 -119l-104 86q68 110 174 164.5t231 54.5q176 0 283 -105.5t107 -300.5v-614h-148v129q-55 -73 -141 -112.5t-195 -39.5q-153 0 -250.5 76.5t-97.5 204.5zM252 266 q0 -76 59 -116.5t148 -40.5q125 0 215 79t90 195v25h-297q-105 0 -160 -36t-55 -106zM303 1368q0 94 65 157.5t160 63.5q98 0 164 -63.5t66 -157.5q0 -93 -66 -158t-164 -65q-95 0 -160 65t-65 158zM428 1368q0 -44 29 -73t73 -29t73.5 29t29.5 73t-30 75.5t-73 31.5 t-72.5 -31.5t-29.5 -75.5z" />
<glyph unicode="&#xe6;" horiz-adv-x="1832" d="M90 266q0 132 98.5 213.5t260.5 81.5h315v62q0 122 -65.5 186.5t-174.5 64.5q-165 0 -288 -159l-105 86q68 110 174.5 164.5t229.5 54.5q120 0 209 -53t133 -156q68 97 172 153t229 56q192 0 321.5 -127.5t129.5 -325.5q0 -85 -15 -135h-782q22 -140 121 -224.5 t241 -84.5q168 0 301 133l95 -104q-76 -84 -178.5 -129.5t-219.5 -45.5q-140 0 -254 65.5t-182 176.5q-53 -115 -164 -178.5t-250 -63.5q-158 0 -255 79t-97 210zM252 283q0 -82 59.5 -127t149.5 -45q123 0 213 77.5t90 192.5v51h-297q-215 0 -215 -149zM932 561h633 q9 145 -77 230.5t-218 85.5t-225.5 -87.5t-112.5 -228.5z" />
<glyph unicode="&#xe7;" horiz-adv-x="1128" d="M102 500q0 143 69.5 262.5t190 188.5t263.5 69q131 0 237 -58t174 -159l-112 -90q-122 161 -297 161q-156 0 -259.5 -108t-103.5 -266q0 -159 103.5 -268t259.5 -109q174 0 295 160l112 -88q-113 -171 -317 -209q49 -62 49 -142q0 -100 -72 -167.5t-196 -67.5 q-70 0 -142 20v113q65 -8 115 -8q72 0 116 33t44 100q0 56 -35 110q-208 12 -351 162t-143 361z" />
<glyph unicode="&#xe8;" horiz-adv-x="1169" d="M102 498q0 143 67 263t184.5 189.5t258.5 69.5q194 0 324.5 -127t130.5 -324q0 -64 -12 -118h-789q15 -148 116.5 -238t250.5 -90q170 0 305 135l92 -106q-165 -175 -399 -175q-225 0 -377 150.5t-152 370.5zM272 590h633q-1 133 -87 210t-210 77q-126 0 -218 -79 t-118 -208zM301 1569v28h193l174 -438h-121z" />
<glyph unicode="&#xe9;" horiz-adv-x="1169" d="M102 498q0 143 67 263t184.5 189.5t258.5 69.5q194 0 324.5 -127t130.5 -324q0 -64 -12 -118h-789q15 -148 116.5 -238t250.5 -90q170 0 305 135l92 -106q-165 -175 -399 -175q-225 0 -377 150.5t-152 370.5zM272 590h633q-1 133 -87 210t-210 77q-126 0 -218 -79 t-118 -208zM553 1159l174 438h193v-28l-246 -410h-121z" />
<glyph unicode="&#xea;" horiz-adv-x="1169" d="M102 498q0 143 67 263t184.5 189.5t258.5 69.5q194 0 324.5 -127t130.5 -324q0 -64 -12 -118h-789q15 -148 116.5 -238t250.5 -90q170 0 305 135l92 -106q-165 -175 -399 -175q-225 0 -377 150.5t-152 370.5zM272 590h633q-1 133 -87 210t-210 77q-126 0 -218 -79 t-118 -208zM283 1159l278 438h98l277 -438h-121l-205 260l-204 -260h-123z" />
<glyph unicode="&#xeb;" horiz-adv-x="1169" d="M102 498q0 143 67 263t184.5 189.5t258.5 69.5q194 0 324.5 -127t130.5 -324q0 -64 -12 -118h-789q15 -148 116.5 -238t250.5 -90q170 0 305 135l92 -106q-165 -175 -399 -175q-225 0 -377 150.5t-152 370.5zM272 590h633q-1 133 -87 210t-210 77q-126 0 -218 -79 t-118 -208zM276 1378q0 45 34.5 78t78.5 33q47 0 80 -32.5t33 -78.5q0 -44 -33 -76t-80 -32q-44 0 -78.5 32.5t-34.5 75.5zM711 1378q0 45 34 78t78 33q47 0 80 -32.5t33 -78.5q0 -44 -33 -76t-80 -32q-43 0 -77.5 32t-34.5 76z" />
<glyph unicode="&#xec;" horiz-adv-x="503" d="M10 1569v28h193l112 -438h-120zM174 0v997h158v-997h-158z" />
<glyph unicode="&#xed;" horiz-adv-x="503" d="M174 0v997h158v-997h-158zM193 1159l112 438h193v-28l-185 -410h-120z" />
<glyph unicode="&#xee;" horiz-adv-x="503" d="M-72 1159l279 438h98l277 -438h-121l-205 260l-205 -260h-123zM174 0v997h158v-997h-158z" />
<glyph unicode="&#xef;" horiz-adv-x="503" d="M-47 1378q0 45 34 78t79 33q47 0 79.5 -32.5t32.5 -78.5q0 -45 -32.5 -76.5t-79.5 -31.5q-45 0 -79 32t-34 76zM174 0v997h158v-997h-158zM326 1378q0 45 34 78t78 33q47 0 80 -32.5t33 -78.5q0 -44 -33 -76t-80 -32q-43 0 -77.5 32t-34.5 76z" />
<glyph unicode="&#xf0;" horiz-adv-x="1165" d="M102 444q0 197 133 329t328 132q64 0 123 -16l-207 287l-305 -148l-55 117l282 135l-137 190l119 89l158 -213l315 151l57 -113l-297 -143l224 -301q60 -80 90 -124.5t66 -109t50.5 -124.5t14.5 -127q0 -204 -135.5 -341t-343.5 -137t-344 134.5t-136 332.5zM264 442 q0 -138 90 -228.5t228 -90.5q137 0 227 91t90 230q0 138 -90 229t-227 91t-227.5 -91.5t-90.5 -230.5z" />
<glyph unicode="&#xf1;" horiz-adv-x="1159" d="M174 0v997h148v-106q116 129 307 129q174 0 272 -108t98 -285v-627h-157v608q0 120 -67 193t-181 73q-115 0 -188.5 -74.5t-73.5 -191.5v-608h-158zM262 1298q0 93 46.5 153t127.5 60q77 0 139 -53l54 -45q29 -26 47 -36.5t39 -10.5q57 0 57 84v35h131q2 -18 2 -51 q0 -92 -46.5 -152.5t-127.5 -60.5q-77 0 -139 53l-53 45q-3 2 -13 10.5t-13 10.5t-11 8.5t-12 8t-11 4.5t-13 4t-13 1q-58 0 -58 -84v-35h-131q-2 18 -2 51z" />
<glyph unicode="&#xf2;" horiz-adv-x="1249" d="M102 500q0 219 151.5 369.5t371.5 150.5q143 0 262.5 -68.5t189.5 -188t70 -263.5q0 -143 -70 -262.5t-190.5 -188.5t-263.5 -69q-107 1 -203 41.5t-166 109t-111 165t-41 204.5zM264 498q0 -159 102 -266t257 -107t258.5 107.5t103.5 265.5q0 161 -103 268.5t-257 107.5 q-156 0 -259.5 -108t-101.5 -268zM317 1569v28h193l174 -438h-121z" />
<glyph unicode="&#xf3;" horiz-adv-x="1249" d="M102 500q0 219 151.5 369.5t371.5 150.5q143 0 262.5 -68.5t189.5 -188t70 -263.5q0 -143 -70 -262.5t-190.5 -188.5t-263.5 -69q-107 1 -203 41.5t-166 109t-111 165t-41 204.5zM264 498q0 -159 102 -266t257 -107t258.5 107.5t103.5 265.5q0 161 -103 268.5t-257 107.5 q-156 0 -259.5 -108t-101.5 -268zM569 1159l174 438h193v-28l-246 -410h-121z" />
<glyph unicode="&#xf4;" horiz-adv-x="1249" d="M102 500q0 219 151.5 369.5t371.5 150.5q143 0 262.5 -68.5t189.5 -188t70 -263.5q0 -143 -70 -262.5t-190.5 -188.5t-263.5 -69q-107 1 -203 41.5t-166 109t-111 165t-41 204.5zM264 498q0 -159 102 -266t257 -107t258.5 107.5t103.5 265.5q0 161 -103 268.5t-257 107.5 q-156 0 -259.5 -108t-101.5 -268zM299 1159l279 438h98l276 -438h-121l-204 260l-205 -260h-123z" />
<glyph unicode="&#xf5;" horiz-adv-x="1249" d="M102 500q0 219 151.5 369.5t371.5 150.5q143 0 262.5 -68.5t189.5 -188t70 -263.5q0 -143 -70 -262.5t-190.5 -188.5t-263.5 -69q-107 1 -203 41.5t-166 109t-111 165t-41 204.5zM264 498q0 -159 102 -266t257 -107t258.5 107.5t103.5 265.5q0 161 -103 268.5t-257 107.5 q-156 0 -259.5 -108t-101.5 -268zM303 1298q0 93 46.5 153t127.5 60q77 0 139 -53l54 -45q29 -26 47 -36.5t39 -10.5q57 0 57 84v35h131q2 -18 2 -51q0 -92 -46.5 -152.5t-127.5 -60.5q-77 0 -139 53l-53 45q-3 2 -13 10.5t-13 10.5t-11 8.5t-12 8t-11 4.5t-13 4t-13 1 q-58 0 -58 -84v-35h-131q-2 18 -2 51z" />
<glyph unicode="&#xf6;" horiz-adv-x="1249" d="M102 500q0 219 151.5 369.5t371.5 150.5q143 0 262.5 -68.5t189.5 -188t70 -263.5q0 -143 -70 -262.5t-190.5 -188.5t-263.5 -69q-107 1 -203 41.5t-166 109t-111 165t-41 204.5zM264 498q0 -159 102 -266t257 -107t258.5 107.5t103.5 265.5q0 161 -103 268.5t-257 107.5 q-156 0 -259.5 -108t-101.5 -268zM293 1378q0 45 34.5 78t78.5 33q47 0 79.5 -32.5t32.5 -78.5q0 -45 -32.5 -76.5t-79.5 -31.5q-44 0 -78.5 32.5t-34.5 75.5zM727 1378q0 45 34.5 78t78.5 33q47 0 79.5 -32.5t32.5 -78.5q0 -45 -32.5 -76.5t-79.5 -31.5q-44 0 -78.5 32.5 t-34.5 75.5z" />
<glyph unicode="&#xf7;" d="M115 575v140h915v-140h-915zM457 276q0 47 32 78t80 31q47 0 80 -31t33 -78q0 -44 -33.5 -76t-79.5 -32q-47 0 -79.5 31.5t-32.5 76.5zM457 1006q0 47 32.5 78.5t79.5 31.5q46 0 79.5 -31.5t33.5 -78.5q0 -44 -33.5 -76.5t-79.5 -32.5q-47 0 -79.5 32t-32.5 77z" />
<glyph unicode="&#xf8;" horiz-adv-x="1271" d="M100 59l121 121q-106 137 -106 318q0 144 69 264t188.5 189t262.5 69q179 0 317 -107l121 119l98 -94l-120 -123q106 -137 106 -317q0 -142 -70 -262t-191 -189.5t-263 -69.5q-178 0 -316 107l-118 -123zM266 498q0 -122 62 -219l528 532q-99 70 -221 70 q-161 0 -265 -109t-104 -274zM414 186q92 -73 219 -73q159 0 266 111t107 274q0 122 -62 219z" />
<glyph unicode="&#xf9;" d="M162 397v600h155v-610q0 -120 74 -192t184 -72q108 0 181 72t73 192v610h158v-600q0 -188 -118 -304t-294 -116q-178 0 -295.5 115.5t-117.5 304.5zM266 1569v28h193l174 -438h-121z" />
<glyph unicode="&#xfa;" d="M162 397v600h155v-610q0 -120 74 -192t184 -72q108 0 181 72t73 192v610h158v-600q0 -188 -118 -304t-294 -116q-178 0 -295.5 115.5t-117.5 304.5zM518 1159l174 438h193v-28l-246 -410h-121z" />
<glyph unicode="&#xfb;" d="M162 397v600h155v-610q0 -120 74 -192t184 -72q108 0 181 72t73 192v610h158v-600q0 -188 -118 -304t-294 -116q-178 0 -295.5 115.5t-117.5 304.5zM248 1159l278 438h99l276 -438h-121l-205 260l-204 -260h-123z" />
<glyph unicode="&#xfc;" d="M162 397v600h155v-610q0 -120 74 -192t184 -72q108 0 181 72t73 192v610h158v-600q0 -188 -118 -304t-294 -116q-178 0 -295.5 115.5t-117.5 304.5zM242 1378q0 45 34 78t78 33q47 0 80 -32.5t33 -78.5q0 -44 -33 -76t-80 -32q-43 0 -77.5 32t-34.5 76zM676 1378 q0 45 34 78t78 33q47 0 80 -32.5t33 -78.5q0 -44 -33 -76t-80 -32q-43 0 -77.5 32t-34.5 76z" />
<glyph unicode="&#xfd;" horiz-adv-x="1103" d="M53 997h170l330 -794l330 794h168l-492 -1136q-58 -132 -140 -192t-198 -60q-75 0 -153 20v133q78 -10 120 -10q78 0 132.5 35t93.5 125l53 119zM492 1159l174 438h192v-28l-246 -410h-120z" />
<glyph unicode="&#xfe;" horiz-adv-x="1294" d="M174 -369v1905h158v-684q60 78 157 123t209 45q141 0 254.5 -68.5t176.5 -187.5t63 -264q0 -146 -63.5 -265.5t-177 -188.5t-253.5 -69q-109 0 -207 44t-159 122v-512h-158zM330 500q0 -95 29.5 -169t79 -118.5t110 -67t127.5 -22.5q153 0 253.5 106.5t100.5 268.5 q0 163 -100 269.5t-254 106.5q-67 0 -127 -22t-110 -66t-79.5 -117.5t-29.5 -168.5z" />
<glyph unicode="&#xff;" horiz-adv-x="1103" d="M53 997h170l330 -794l330 794h168l-492 -1136q-58 -132 -140 -192t-198 -60q-75 0 -153 20v133q78 -10 120 -10q78 0 132.5 35t93.5 125l53 119zM215 1378q0 45 34.5 78t78.5 33q47 0 79.5 -32.5t32.5 -78.5q0 -45 -32.5 -76.5t-79.5 -31.5q-44 0 -78.5 32.5t-34.5 75.5z M649 1378q0 45 34.5 78t78.5 33q47 0 79.5 -32.5t32.5 -78.5q0 -45 -32.5 -76.5t-79.5 -31.5q-44 0 -78.5 32.5t-34.5 75.5z" />
<glyph unicode="&#x100;" horiz-adv-x="1357" d="M63 0l586 1374h60l585 -1374h-170l-114 274h-664l-115 -274h-168zM377 1577v129h604v-129h-604zM408 418h540l-270 665z" />
<glyph unicode="&#x101;" horiz-adv-x="1081" d="M90 258q0 126 98 202.5t261 76.5h315v86q0 123 -64.5 187t-177.5 64q-90 0 -160 -40t-131 -119l-104 86q68 110 174 164.5t231 54.5q176 0 283 -105.5t107 -300.5v-614h-148v129q-55 -73 -141 -112.5t-195 -39.5q-153 0 -250.5 76.5t-97.5 204.5zM248 1315v127h563v-127 h-563zM252 266q0 -76 59 -116.5t148 -40.5q125 0 215 79t90 195v25h-297q-105 0 -160 -36t-55 -106z" />
<glyph unicode="&#x102;" horiz-adv-x="1357" d="M63 0l586 1374h60l585 -1374h-170l-114 274h-664l-115 -274h-168zM369 1827h133q0 -86 50.5 -137.5t127.5 -51.5q78 0 128 51.5t50 137.5h133q0 -134 -88.5 -224t-222.5 -90t-222.5 90t-88.5 224zM408 418h540l-270 665z" />
<glyph unicode="&#x103;" horiz-adv-x="1081" d="M90 258q0 126 98 202.5t261 76.5h315v86q0 123 -64.5 187t-177.5 64q-90 0 -160 -40t-131 -119l-104 86q68 110 174 164.5t231 54.5q176 0 283 -105.5t107 -300.5v-614h-148v129q-55 -73 -141 -112.5t-195 -39.5q-153 0 -250.5 76.5t-97.5 204.5zM219 1507h133 q0 -84 50.5 -135t127.5 -51q78 0 129.5 51t51.5 135h131q0 -133 -89 -222t-223 -89t-222.5 89t-88.5 222zM252 266q0 -76 59 -116.5t148 -40.5q125 0 215 79t90 195v25h-297q-105 0 -160 -36t-55 -106z" />
<glyph unicode="&#x104;" horiz-adv-x="1357" d="M63 0l586 1374h60l585 -1374l-100 -68q-34 -22 -45 -30t-30.5 -24.5t-25.5 -31.5t-6 -34q0 -76 99 -76q43 0 108 14v-119q-72 -22 -147 -22q-98 0 -158.5 48.5t-60.5 129.5q0 61 44 112t148 111l-110 264h-664l-115 -274h-168zM408 418h540l-270 665z" />
<glyph unicode="&#x105;" horiz-adv-x="1081" d="M90 258q0 126 98 202.5t261 76.5h315v86q0 123 -64.5 187t-177.5 64q-90 0 -160 -40t-131 -119l-104 86q68 110 174 164.5t231 54.5q176 0 283 -105.5t107 -300.5v-614l-101 -68q-33 -21 -45 -29.5t-30.5 -25t-24.5 -31.5t-6 -34q0 -76 98 -76q44 0 109 14v-119 q-71 -22 -148 -22q-98 0 -158.5 48.5t-60.5 129.5q0 65 49.5 119t169.5 121v102q-55 -73 -141 -112.5t-195 -39.5q-153 0 -250.5 76.5t-97.5 204.5zM252 266q0 -76 59 -116.5t148 -40.5q125 0 215 79t90 195v25h-297q-105 0 -160 -36t-55 -106z" />
<glyph unicode="&#x106;" horiz-adv-x="1464" d="M98 676q0 194 93.5 354.5t255 252t354.5 91.5q180 0 327 -79t234 -212l-119 -94q-77 113 -189.5 175.5t-250.5 62.5q-113 0 -213 -42t-171.5 -115t-113 -175.5t-41.5 -218.5t41.5 -218.5t113 -175.5t171.5 -115t213 -42q138 0 250.5 62t189.5 175l119 -94 q-84 -132 -232.5 -211.5t-328.5 -79.5q-144 0 -274 54t-224.5 147t-149.5 223t-55 275zM741 1483l174 381h193v-29l-246 -352h-121z" />
<glyph unicode="&#x107;" horiz-adv-x="1128" d="M102 500q0 143 69.5 262.5t190 188.5t263.5 69q131 0 237 -58t174 -159l-112 -90q-122 161 -297 161q-156 0 -259.5 -108t-103.5 -266q0 -159 103.5 -268t259.5 -109q174 0 295 160l112 -88q-68 -101 -173.5 -159.5t-235.5 -58.5q-143 0 -263.5 69t-190 189.5 t-69.5 264.5zM567 1159l174 438h193v-28l-246 -410h-121z" />
<glyph unicode="&#x108;" horiz-adv-x="1464" d="M98 676q0 194 93.5 354.5t255 252t354.5 91.5q180 0 327 -79t234 -212l-119 -94q-77 113 -189.5 175.5t-250.5 62.5q-113 0 -213 -42t-171.5 -115t-113 -175.5t-41.5 -218.5t41.5 -218.5t113 -175.5t171.5 -115t213 -42q138 0 250.5 62t189.5 175l119 -94 q-84 -132 -232.5 -211.5t-328.5 -79.5q-144 0 -274 54t-224.5 147t-149.5 223t-55 275zM451 1483l301 381h98l301 -381h-125l-225 221l-226 -221h-124z" />
<glyph unicode="&#x109;" horiz-adv-x="1128" d="M102 500q0 143 69.5 262.5t190 188.5t263.5 69q131 0 237 -58t174 -159l-112 -90q-122 161 -297 161q-156 0 -259.5 -108t-103.5 -266q0 -159 103.5 -268t259.5 -109q174 0 295 160l112 -88q-68 -101 -173.5 -159.5t-235.5 -58.5q-143 0 -263.5 69t-190 189.5 t-69.5 264.5zM297 1159l278 438h99l276 -438h-121l-204 260l-205 -260h-123z" />
<glyph unicode="&#x10a;" horiz-adv-x="1464" d="M98 676q0 194 93.5 354.5t255 252t354.5 91.5q180 0 327 -79t234 -212l-119 -94q-77 113 -189.5 175.5t-250.5 62.5q-113 0 -213 -42t-171.5 -115t-113 -175.5t-41.5 -218.5t41.5 -218.5t113 -175.5t171.5 -115t213 -42q138 0 250.5 62t189.5 175l119 -94 q-84 -132 -232.5 -211.5t-328.5 -79.5q-144 0 -274 54t-224.5 147t-149.5 223t-55 275zM682 1659q0 47 35 81t84 34q47 0 82 -34t35 -81q0 -49 -34.5 -82t-82.5 -33q-50 0 -84.5 33t-34.5 82z" />
<glyph unicode="&#x10b;" horiz-adv-x="1128" d="M102 500q0 143 69.5 262.5t190 188.5t263.5 69q131 0 237 -58t174 -159l-112 -90q-122 161 -297 161q-156 0 -259.5 -108t-103.5 -266q0 -159 103.5 -268t259.5 -109q174 0 295 160l112 -88q-68 -101 -173.5 -159.5t-235.5 -58.5q-143 0 -263.5 69t-190 189.5 t-69.5 264.5zM504 1378q0 47 35 81t84 34q47 0 81.5 -34t34.5 -81q0 -49 -34 -81.5t-82 -32.5q-50 0 -84.5 32.5t-34.5 81.5z" />
<glyph unicode="&#x10c;" horiz-adv-x="1464" d="M98 676q0 194 93.5 354.5t255 252t354.5 91.5q180 0 327 -79t234 -212l-119 -94q-77 113 -189.5 175.5t-250.5 62.5q-113 0 -213 -42t-171.5 -115t-113 -175.5t-41.5 -218.5t41.5 -218.5t113 -175.5t171.5 -115t213 -42q138 0 250.5 62t189.5 175l119 -94 q-84 -132 -232.5 -211.5t-328.5 -79.5q-144 0 -274 54t-224.5 147t-149.5 223t-55 275zM451 1864h124l226 -219l225 219h125l-301 -381h-98z" />
<glyph unicode="&#x10d;" horiz-adv-x="1128" d="M102 500q0 143 69.5 262.5t190 188.5t263.5 69q131 0 237 -58t174 -159l-112 -90q-122 161 -297 161q-156 0 -259.5 -108t-103.5 -266q0 -159 103.5 -268t259.5 -109q174 0 295 160l112 -88q-68 -101 -173.5 -159.5t-235.5 -58.5q-143 0 -263.5 69t-190 189.5 t-69.5 264.5zM297 1597h123l205 -260l204 260h121l-276 -438h-99z" />
<glyph unicode="&#x10e;" horiz-adv-x="1421" d="M186 0v1352h402q169 0 308 -50t232 -139.5t144 -213.5t51 -271q0 -145 -51 -269t-144 -215t-232 -142.5t-308 -51.5h-402zM233 1864h125l226 -219l225 219h125l-301 -381h-98zM346 143h240q133 0 241.5 41t180 113t110.5 169.5t39 211.5q0 237 -152.5 383.5t-418.5 146.5 h-240v-1065z" />
<glyph unicode="&#x10f;" horiz-adv-x="1544" d="M102 498q0 146 63.5 265.5t177 188t253.5 68.5q113 0 211 -45.5t158 -124.5v686h157v-1536h-149v158q-58 -85 -159 -133t-218 -48q-140 0 -253.5 69t-177 188t-63.5 264zM264 500q0 -163 100 -270t254 -107q67 0 127.5 22.5t111 66t80.5 118t30 168.5t-30 168.5 t-80.5 118.5t-111 66.5t-127.5 22.5q-153 0 -253.5 -106t-100.5 -268zM1327 1104l27 432h170l-78 -432h-119z" />
<glyph unicode="&#x110;" horiz-adv-x="1421" d="M-8 561v135h194v656h402q169 0 308 -50t232 -139.5t144 -213.5t51 -271q0 -145 -51 -269t-144 -215t-232 -142.5t-308 -51.5h-402v561h-194zM346 143h240q133 0 241.5 41t180 113t110.5 169.5t39 211.5q0 237 -152.5 383.5t-418.5 146.5h-240v-512h266v-135h-266v-418z " />
<glyph unicode="&#x111;" horiz-adv-x="1298" d="M100 483q0 217 139.5 362.5t348.5 145.5q114 0 214 -46t161 -128v373h-449v131h449v215h155v-215h170v-131h-170v-1190h-147v162q-60 -86 -163 -135.5t-220 -49.5q-207 0 -347.5 145t-140.5 361zM262 483q0 -159 100 -261.5t254 -102.5q67 0 127 21t110.5 63.5t80 114.5 t29.5 165t-29.5 165.5t-79.5 115.5t-110.5 64.5t-127.5 21.5q-153 0 -253.5 -103.5t-100.5 -263.5z" />
<glyph unicode="&#x112;" horiz-adv-x="1159" d="M186 0v1352h867v-144h-707v-413h541v-144h-541v-508h731v-143h-891zM317 1577v129h605v-129h-605z" />
<glyph unicode="&#x113;" horiz-adv-x="1169" d="M102 498q0 143 67 263t184.5 189.5t258.5 69.5q194 0 324.5 -127t130.5 -324q0 -64 -12 -118h-789q15 -148 116.5 -238t250.5 -90q170 0 305 135l92 -106q-165 -175 -399 -175q-225 0 -377 150.5t-152 370.5zM272 590h633q-1 133 -87 210t-210 77q-126 0 -218 -79 t-118 -208zM326 1315v127h563v-127h-563z" />
<glyph unicode="&#x114;" horiz-adv-x="1159" d="M186 0v1352h867v-144h-707v-413h541v-144h-541v-508h731v-143h-891zM309 1827h133q0 -86 51 -137.5t128 -51.5q78 0 128 51.5t50 137.5h133q0 -134 -88.5 -224t-222.5 -90t-223 90t-89 224z" />
<glyph unicode="&#x115;" horiz-adv-x="1169" d="M102 498q0 143 67 263t184.5 189.5t258.5 69.5q194 0 324.5 -127t130.5 -324q0 -64 -12 -118h-789q15 -148 116.5 -238t250.5 -90q170 0 305 135l92 -106q-165 -175 -399 -175q-225 0 -377 150.5t-152 370.5zM272 590h633q-1 133 -87 210t-210 77q-126 0 -218 -79 t-118 -208zM297 1507h133q0 -84 50.5 -135t127.5 -51q78 0 129 50.5t51 135.5h132q0 -133 -89 -222t-223 -89t-222.5 89t-88.5 222z" />
<glyph unicode="&#x116;" horiz-adv-x="1159" d="M186 0v1352h867v-144h-707v-413h541v-144h-541v-508h731v-143h-891zM502 1659q0 47 35 81t84 34q47 0 81.5 -34t34.5 -81q0 -49 -34 -82t-82 -33q-50 0 -84.5 33t-34.5 82z" />
<glyph unicode="&#x117;" horiz-adv-x="1169" d="M102 498q0 143 67 263t184.5 189.5t258.5 69.5q194 0 324.5 -127t130.5 -324q0 -64 -12 -118h-789q15 -148 116.5 -238t250.5 -90q170 0 305 135l92 -106q-165 -175 -399 -175q-225 0 -377 150.5t-152 370.5zM272 590h633q-1 133 -87 210t-210 77q-126 0 -218 -79 t-118 -208zM489 1378q0 47 35 81t84 34q47 0 82 -34t35 -81q0 -49 -34.5 -81.5t-82.5 -32.5q-50 0 -84.5 32.5t-34.5 81.5z" />
<glyph unicode="&#x118;" horiz-adv-x="1159" d="M186 0v1352h867v-144h-707v-413h541v-144h-541v-508h731v-143l-100 -68q-34 -22 -45 -30t-30.5 -24.5t-25.5 -31.5t-6 -34q0 -76 99 -76q43 0 108 14v-119q-71 -22 -147 -22q-98 0 -158.5 48.5t-60.5 129.5q0 60 40 108.5t134 104.5h-699z" />
<glyph unicode="&#x119;" horiz-adv-x="1169" d="M102 498q0 143 67 263t184.5 189.5t258.5 69.5q194 0 324.5 -127t130.5 -324q0 -64 -12 -118h-789q15 -148 116.5 -238t250.5 -90q175 0 311 139l84 -108q-22 -25 -50.5 -50t-49 -39t-64 -42.5t-63.5 -42.5q-64 -43 -96.5 -80t-32.5 -84q0 -82 104 -82q44 0 109 14v-113 q-67 -26 -146 -26q-99 0 -160 48t-61 130q0 54 30.5 99t96.5 91h-27q-106 0 -201.5 40.5t-164.5 110t-109.5 166t-40.5 204.5zM272 590h633q-1 133 -87 210t-210 77q-126 0 -218 -79t-118 -208z" />
<glyph unicode="&#x11a;" horiz-adv-x="1159" d="M186 0v1352h867v-144h-707v-413h541v-144h-541v-508h731v-143h-891zM270 1864h125l226 -219l225 219h125l-301 -381h-99z" />
<glyph unicode="&#x11b;" horiz-adv-x="1169" d="M102 498q0 143 67 263t184.5 189.5t258.5 69.5q194 0 324.5 -127t130.5 -324q0 -64 -12 -118h-789q15 -148 116.5 -238t250.5 -90q170 0 305 135l92 -106q-165 -175 -399 -175q-225 0 -377 150.5t-152 370.5zM272 590h633q-1 133 -87 210t-210 77q-126 0 -218 -79 t-118 -208zM283 1597h123l204 -260l205 260h121l-277 -438h-98z" />
<glyph unicode="&#x11c;" horiz-adv-x="1527" d="M98 676q0 146 55 275.5t149 222t224 146.5t275 54q171 0 313.5 -72.5t237.5 -203.5l-121 -94q-77 107 -186 165t-244 58q-233 0 -385 -157t-152 -392q0 -156 69.5 -283.5t194.5 -200.5t281 -73q147 0 264 65.5t187 175.5v183h-461v143h620v-360q-91 -160 -255 -255.5 t-363 -95.5q-146 0 -276 54.5t-224 147.5t-148.5 222.5t-54.5 274.5zM455 1483l301 381h98l301 -381h-125l-225 221l-225 -221h-125z" />
<glyph unicode="&#x11d;" horiz-adv-x="1304" d="M115 514q0 217 139.5 361.5t349.5 144.5q119 0 220 -48t159 -134v159h150v-901q0 -228 -132.5 -357.5t-353.5 -129.5q-145 0 -265.5 54.5t-203.5 137.5l92 111q85 -74 173 -116t200 -42q155 0 243.5 85.5t88.5 248.5v88q-60 -78 -159 -122t-212 -44q-211 0 -350 143 t-139 361zM274 512q0 -157 100.5 -256.5t254.5 -99.5q67 0 128 21.5t111 63.5t79.5 112.5t29.5 160.5t-30 160.5t-80 112t-110.5 62.5t-127.5 21q-153 0 -254 -100.5t-101 -257.5zM311 1159l279 438h98l277 -438h-121l-205 260l-205 -260h-123z" />
<glyph unicode="&#x11e;" horiz-adv-x="1527" d="M98 676q0 146 55 275.5t149 222t224 146.5t275 54q171 0 313.5 -72.5t237.5 -203.5l-121 -94q-77 107 -186 165t-244 58q-233 0 -385 -157t-152 -392q0 -156 69.5 -283.5t194.5 -200.5t281 -73q147 0 264 65.5t187 175.5v183h-461v143h620v-360q-91 -160 -255 -255.5 t-363 -95.5q-146 0 -276 54.5t-224 147.5t-148.5 222.5t-54.5 274.5zM494 1827h133q0 -86 50.5 -137.5t127.5 -51.5q78 0 128 51.5t50 137.5h133q0 -134 -88.5 -224t-222.5 -90t-222.5 90t-88.5 224z" />
<glyph unicode="&#x11f;" horiz-adv-x="1304" d="M115 514q0 217 139.5 361.5t349.5 144.5q119 0 220 -48t159 -134v159h150v-901q0 -228 -132.5 -357.5t-353.5 -129.5q-145 0 -265.5 54.5t-203.5 137.5l92 111q85 -74 173 -116t200 -42q155 0 243.5 85.5t88.5 248.5v88q-60 -78 -159 -122t-212 -44q-211 0 -350 143 t-139 361zM274 512q0 -157 100.5 -256.5t254.5 -99.5q67 0 128 21.5t111 63.5t79.5 112.5t29.5 160.5t-30 160.5t-80 112t-110.5 62.5t-127.5 21q-153 0 -254 -100.5t-101 -257.5zM326 1507h133q0 -84 50.5 -135t127.5 -51q78 0 129 50.5t51 135.5h131q0 -133 -88.5 -222 t-222.5 -89t-222.5 89t-88.5 222z" />
<glyph unicode="&#x120;" horiz-adv-x="1527" d="M98 676q0 146 55 275.5t149 222t224 146.5t275 54q171 0 313.5 -72.5t237.5 -203.5l-121 -94q-77 107 -186 165t-244 58q-233 0 -385 -157t-152 -392q0 -156 69.5 -283.5t194.5 -200.5t281 -73q147 0 264 65.5t187 175.5v183h-461v143h620v-360q-91 -160 -255 -255.5 t-363 -95.5q-146 0 -276 54.5t-224 147.5t-148.5 222.5t-54.5 274.5zM686 1659q0 47 35 81t84 34q47 0 82 -34t35 -81q0 -49 -34.5 -82t-82.5 -33q-50 0 -84.5 33t-34.5 82z" />
<glyph unicode="&#x121;" horiz-adv-x="1304" d="M115 514q0 217 139.5 361.5t349.5 144.5q119 0 220 -48t159 -134v159h150v-901q0 -228 -132.5 -357.5t-353.5 -129.5q-145 0 -265.5 54.5t-203.5 137.5l92 111q85 -74 173 -116t200 -42q155 0 243.5 85.5t88.5 248.5v88q-60 -78 -159 -122t-212 -44q-211 0 -350 143 t-139 361zM274 512q0 -157 100.5 -256.5t254.5 -99.5q67 0 128 21.5t111 63.5t79.5 112.5t29.5 160.5t-30 160.5t-80 112t-110.5 62.5t-127.5 21q-153 0 -254 -100.5t-101 -257.5zM518 1378q0 47 35 81t84 34q47 0 82 -34t35 -81q0 -49 -34.5 -81.5t-82.5 -32.5 q-50 0 -84.5 32.5t-34.5 81.5z" />
<glyph unicode="&#x122;" horiz-adv-x="1527" d="M98 676q0 146 55 275.5t149 222t224 146.5t275 54q171 0 313.5 -72.5t237.5 -203.5l-121 -94q-77 107 -186 165t-244 58q-233 0 -385 -157t-152 -392q0 -156 69.5 -283.5t194.5 -200.5t281 -73q147 0 264 65.5t187 175.5v183h-461v143h620v-360q-91 -160 -255 -255.5 t-363 -95.5q-146 0 -276 54.5t-224 147.5t-148.5 222.5t-54.5 274.5zM707 -451l18 351h156l-50 -351h-124z" />
<glyph unicode="&#x123;" horiz-adv-x="1304" d="M115 514q0 217 139.5 361.5t349.5 144.5q119 0 220 -48t159 -134v159h150v-901q0 -228 -132.5 -357.5t-353.5 -129.5q-145 0 -265.5 54.5t-203.5 137.5l92 111q85 -74 173 -116t200 -42q155 0 243.5 85.5t88.5 248.5v88q-60 -78 -159 -122t-212 -44q-211 0 -350 143 t-139 361zM274 512q0 -157 100.5 -256.5t254.5 -99.5q67 0 128 21.5t111 63.5t79.5 112.5t29.5 160.5t-30 160.5t-80 112t-110.5 62.5t-127.5 21q-153 0 -254 -100.5t-101 -257.5zM559 1159l66 438h120l-30 -438h-156z" />
<glyph unicode="&#x124;" horiz-adv-x="1449" d="M186 0v1352h160v-557h758v557h160v-1352h-160v651h-758v-651h-160zM375 1483l301 381h98l301 -381h-125l-225 221l-225 -221h-125z" />
<glyph unicode="&#x125;" horiz-adv-x="1159" d="M-18 1667l301 381h98l301 -381h-125l-225 221l-226 -221h-124zM174 0v1536h158v-651q109 135 299 135q172 0 270 -108t98 -285v-627h-157v606q0 120 -67 194t-181 74q-115 0 -188.5 -75.5t-73.5 -192.5v-606h-158z" />
<glyph unicode="&#x126;" horiz-adv-x="1472" d="M-8 942v135h203v275h159v-275h760v275h160v-275h205v-135h-205v-942h-160v518h-760v-518h-159v942h-203zM354 664h760v278h-760v-278z" />
<glyph unicode="&#x127;" horiz-adv-x="1167" d="M10 1186v139h170v211h156v-211h414v-139h-414v-332q108 137 301 137q172 0 271.5 -108t99.5 -283v-600h-158v582q0 118 -67.5 191t-180.5 73q-117 0 -191.5 -74t-74.5 -190v-582h-156v1186h-170z" />
<glyph unicode="&#x128;" horiz-adv-x="530" d="M-70 1591q0 89 49 148t130 59q70 0 143 -47l70 -45q3 -2 16 -10.5t16 -10.5t13 -7.5t15.5 -7t13.5 -3.5t16 -2q29 0 44 21t15 55v37h133q2 -16 2 -54q0 -88 -48 -146t-126 -58q-70 0 -149 49l-68 41q-6 4 -22 14.5t-23.5 14.5t-19.5 8t-23 4q-30 0 -45.5 -22.5 t-15.5 -55.5v-33h-132q-4 28 -4 51zM186 0v1352h160v-1352h-160z" />
<glyph unicode="&#x129;" horiz-adv-x="503" d="M-49 1296q0 92 45.5 153.5t126.5 61.5q74 0 133 -59l39 -39q27 -27 41 -37t33 -10q53 0 53 84v35h129q4 -20 4 -49q0 -91 -45.5 -153t-122.5 -62q-69 0 -133 61l-39 37q-27 27 -41 37t-33 10q-57 0 -57 -84v-35h-129q-4 16 -4 49zM174 0v997h158v-997h-158z" />
<glyph unicode="&#x12a;" horiz-adv-x="530" d="M-35 1577v129h604v-129h-604zM186 0v1352h160v-1352h-160z" />
<glyph unicode="&#x12b;" horiz-adv-x="503" d="M29 1313v131h452v-131h-452zM174 0v997h158v-997h-158z" />
<glyph unicode="&#x12c;" horiz-adv-x="530" d="M-43 1827h133q0 -86 50.5 -137.5t127.5 -51.5q78 0 128 51.5t50 137.5h134q0 -134 -89 -224t-223 -90t-222.5 90t-88.5 224zM186 0v1352h160v-1352h-160z" />
<glyph unicode="&#x12d;" horiz-adv-x="503" d="M-57 1507h133q0 -84 50.5 -135t127.5 -51q78 0 129 50.5t51 135.5h131q0 -133 -88.5 -222t-222.5 -89t-222.5 89t-88.5 222zM174 0v997h158v-997h-158z" />
<glyph unicode="&#x12e;" horiz-adv-x="530" d="M-20 -213q0 64 46.5 116t159.5 117v1332h160v-1352l-100 -68q-34 -22 -45 -30t-30.5 -24.5t-25.5 -31.5t-6 -34q0 -76 99 -76q43 0 108 14v-119q-72 -22 -147 -22q-98 0 -158.5 48.5t-60.5 129.5z" />
<glyph unicode="&#x12f;" horiz-adv-x="503" d="M-35 -213q0 64 47.5 117t161.5 116v977h158v-997l-101 -68q-33 -21 -45 -29.5t-30.5 -25t-24.5 -31.5t-6 -34q0 -76 98 -76q44 0 109 14v-119q-71 -22 -148 -22q-98 0 -158.5 48.5t-60.5 129.5zM135 1378q0 47 35 81t84 34q47 0 82 -34t35 -81q0 -49 -34.5 -81.5 t-82.5 -32.5q-50 0 -84.5 32.5t-34.5 81.5z" />
<glyph unicode="&#x130;" horiz-adv-x="530" d="M150 1659q0 47 34.5 81t83.5 34q47 0 82 -34t35 -81q0 -49 -34.5 -82t-82.5 -33q-50 0 -84 33t-34 82zM186 0v1352h160v-1352h-160z" />
<glyph unicode="&#x131;" horiz-adv-x="503" d="M174 0v997h158v-997h-158z" />
<glyph unicode="&#x132;" horiz-adv-x="1294" d="M186 0v1352h160v-1352h-160zM580 0v137q83 -12 147 -12q109 0 166 44.5t57 158.5v1024h160v-1039q0 -170 -94.5 -253t-257.5 -83q-76 0 -178 23z" />
<glyph unicode="&#x133;" horiz-adv-x="1007" d="M135 1378q0 47 35 81t84 34q47 0 82 -34t35 -81q0 -49 -34.5 -81.5t-82.5 -32.5q-50 0 -84.5 32.5t-34.5 81.5zM174 0v997h158v-997h-158zM381 -242q53 -6 92 -6q98 0 151.5 43.5t53.5 147.5v1054h158v-1065q0 -163 -89 -243t-239 -80q-68 0 -127 16v133zM639 1378 q0 47 35 81t84 34q47 0 81.5 -34t34.5 -81q0 -49 -34 -81.5t-82 -32.5q-50 0 -84.5 32.5t-34.5 81.5z" />
<glyph unicode="&#x134;" horiz-adv-x="763" d="M49 0v137q83 -12 148 -12q109 0 166 44.5t57 158.5v1024h160v-1039q0 -170 -95 -253t-258 -83q-76 0 -178 23zM131 1483l301 381h98l301 -381h-124l-226 221l-225 -221h-125z" />
<glyph unicode="&#x135;" horiz-adv-x="503" d="M-123 -242q52 -6 92 -6q98 0 151.5 43.5t53.5 147.5v1054h158v-1065q0 -163 -89 -243t-239 -80q-68 0 -127 16v133zM-72 1159l279 438h98l277 -438h-121l-205 260l-205 -260h-123z" />
<glyph unicode="&#x136;" horiz-adv-x="1296" d="M186 0v1352h160v-1352h-160zM365 725l608 627h205l-605 -627l660 -725h-203zM524 -451l19 351h155l-49 -351h-125z" />
<glyph unicode="&#x137;" horiz-adv-x="1036" d="M174 0v1536h158v-1536h-158zM348 561l416 436h207l-432 -438l471 -559h-203zM422 -451l18 351h156l-49 -351h-125z" />
<glyph unicode="&#x139;" horiz-adv-x="1036" d="M186 0v1352h160v-1209h641v-143h-801zM207 1483l174 381h192v-29l-245 -352h-121z" />
<glyph unicode="&#x13a;" horiz-adv-x="503" d="M174 0v1536h158v-1536h-158zM195 1667l174 381h192v-29l-246 -352h-120z" />
<glyph unicode="&#x13b;" horiz-adv-x="1036" d="M186 0v1352h160v-1209h641v-143h-801zM473 -451l19 351h155l-49 -351h-125z" />
<glyph unicode="&#x13c;" horiz-adv-x="503" d="M156 -451l18 351h156l-49 -351h-125zM174 0v1536h158v-1536h-158z" />
<glyph unicode="&#x13d;" horiz-adv-x="1036" d="M186 0v1352h160v-1209h641v-143h-801zM743 1042l27 433h170l-78 -433h-119z" />
<glyph unicode="&#x13e;" horiz-adv-x="743" d="M174 0v1536h158v-1536h-158zM526 1104l27 432h170l-78 -432h-119z" />
<glyph unicode="&#x13f;" horiz-adv-x="1036" d="M186 0v1352h160v-1209h641v-143h-801zM655 754q0 56 37.5 92.5t91.5 36.5t91.5 -36.5t37.5 -92.5t-37.5 -92.5t-91.5 -36.5t-91.5 36.5t-37.5 92.5z" />
<glyph unicode="&#x140;" horiz-adv-x="503" d="M174 0v1536h158v-1536h-158zM440 643q0 56 37.5 92.5t91.5 36.5t91.5 -36.5t37.5 -92.5t-37.5 -92.5t-91.5 -36.5t-91.5 36.5t-37.5 92.5z" />
<glyph unicode="&#x141;" horiz-adv-x="1036" d="M25 449v147l161 72v684h160v-623l451 207v-152l-451 -204v-437h641v-143h-801v520z" />
<glyph unicode="&#x142;" horiz-adv-x="737" d="M115 561v150l159 75v750h158v-696l178 82v-150l-178 -82v-690h-158v635z" />
<glyph unicode="&#x143;" horiz-adv-x="1449" d="M186 0v1374h58l860 -1038v1016h160v-1375h-58l-860 1037v-1014h-160zM666 1483l174 381h192v-29l-246 -352h-120z" />
<glyph unicode="&#x144;" horiz-adv-x="1159" d="M174 0v997h148v-106q116 129 307 129q174 0 272 -108t98 -285v-627h-157v608q0 120 -67 193t-181 73q-115 0 -188.5 -74.5t-73.5 -191.5v-608h-158zM528 1159l174 438h193v-28l-246 -410h-121z" />
<glyph unicode="&#x145;" horiz-adv-x="1449" d="M186 0v1374h58l860 -1038v1016h160v-1375h-58l-860 1037v-1014h-160zM627 -451l18 351h156l-49 -351h-125z" />
<glyph unicode="&#x146;" horiz-adv-x="1159" d="M174 0v997h148v-106q116 129 307 129q174 0 272 -108t98 -285v-627h-157v608q0 120 -67 193t-181 73q-115 0 -188.5 -74.5t-73.5 -191.5v-608h-158zM485 -451l19 351h155l-49 -351h-125z" />
<glyph unicode="&#x147;" horiz-adv-x="1449" d="M186 0v1374h58l860 -1038v1016h160v-1375h-58l-860 1037v-1014h-160zM375 1864h125l225 -219l225 219h125l-301 -381h-98z" />
<glyph unicode="&#x148;" horiz-adv-x="1159" d="M174 0v997h148v-106q116 129 307 129q174 0 272 -108t98 -285v-627h-157v608q0 120 -67 193t-181 73q-115 0 -188.5 -74.5t-73.5 -191.5v-608h-158zM258 1597h123l205 -260l205 260h120l-276 -438h-98z" />
<glyph unicode="&#x14a;" horiz-adv-x="1449" d="M186 0v1374h58l860 -1106v1084h160v-1420q0 -164 -88 -243.5t-240 -79.5q-66 0 -125 16v133q53 -6 92 -6q98 0 149.5 43t51.5 148v84l-758 970v-997h-160z" />
<glyph unicode="&#x14b;" horiz-adv-x="1159" d="M174 0v997h148v-106q116 129 307 129q174 0 272 -108t98 -285v-695q0 -163 -88.5 -243t-238.5 -80q-68 0 -127 16v133q53 -6 90 -6q100 0 153.5 42.5t53.5 148.5v663q0 120 -67 194t-181 74q-115 0 -188.5 -75.5t-73.5 -192.5v-606h-158z" />
<glyph unicode="&#x14c;" horiz-adv-x="1599" d="M98 676q0 194 93.5 354.5t254.5 252t353 91.5q191 0 352 -91.5t255.5 -252t94.5 -354.5t-94.5 -355t-255.5 -252.5t-352 -91.5q-144 0 -274 54.5t-223.5 147.5t-148.5 222.5t-55 274.5zM264 678q0 -237 153 -395t384 -158q150 0 272.5 72t192 199t69.5 282 q0 234 -153 391.5t-381 157.5q-231 0 -384 -157t-153 -392zM498 1577v129h604v-129h-604z" />
<glyph unicode="&#x14d;" horiz-adv-x="1249" d="M102 500q0 219 151.5 369.5t371.5 150.5q143 0 262.5 -68.5t189.5 -188t70 -263.5q0 -143 -70 -262.5t-190.5 -188.5t-263.5 -69q-107 1 -203 41.5t-166 109t-111 165t-41 204.5zM264 498q0 -159 102 -266t257 -107t258.5 107.5t103.5 265.5q0 161 -103 268.5t-257 107.5 q-156 0 -259.5 -108t-101.5 -268zM342 1315v127h563v-127h-563z" />
<glyph unicode="&#x14e;" horiz-adv-x="1599" d="M98 676q0 194 93.5 354.5t254.5 252t353 91.5q191 0 352 -91.5t255.5 -252t94.5 -354.5t-94.5 -355t-255.5 -252.5t-352 -91.5q-144 0 -274 54.5t-223.5 147.5t-148.5 222.5t-55 274.5zM264 678q0 -237 153 -395t384 -158q150 0 272.5 72t192 199t69.5 282 q0 234 -153 391.5t-381 157.5q-231 0 -384 -157t-153 -392zM489 1827h134q0 -86 50.5 -137.5t127.5 -51.5q78 0 128 51.5t50 137.5h133q0 -134 -88.5 -224t-222.5 -90t-223 90t-89 224z" />
<glyph unicode="&#x14f;" horiz-adv-x="1249" d="M102 500q0 219 151.5 369.5t371.5 150.5q143 0 262.5 -68.5t189.5 -188t70 -263.5q0 -143 -70 -262.5t-190.5 -188.5t-263.5 -69q-107 1 -203 41.5t-166 109t-111 165t-41 204.5zM264 498q0 -159 102 -266t257 -107t258.5 107.5t103.5 265.5q0 161 -103 268.5t-257 107.5 q-156 0 -259.5 -108t-101.5 -268zM313 1507h133q0 -84 51 -135t128 -51q78 0 129 50.5t51 135.5h131q0 -133 -88.5 -222t-222.5 -89t-223 89t-89 222z" />
<glyph unicode="&#x150;" horiz-adv-x="1599" d="M98 676q0 194 93.5 354.5t254.5 252t353 91.5q191 0 352 -91.5t255.5 -252t94.5 -354.5t-94.5 -355t-255.5 -252.5t-352 -91.5q-144 0 -274 54.5t-223.5 147.5t-148.5 222.5t-55 274.5zM264 678q0 -237 153 -395t384 -158q150 0 272.5 72t192 199t69.5 282 q0 234 -153 391.5t-381 157.5q-231 0 -384 -157t-153 -392zM539 1483l174 381h170v-29l-232 -352h-112zM911 1483l174 381h170v-29l-229 -352h-115z" />
<glyph unicode="&#x151;" horiz-adv-x="1249" d="M102 500q0 219 151.5 369.5t371.5 150.5q143 0 262.5 -68.5t189.5 -188t70 -263.5q0 -143 -70 -262.5t-190.5 -188.5t-263.5 -69q-107 1 -203 41.5t-166 109t-111 165t-41 204.5zM264 498q0 -159 102 -266t257 -107t258.5 107.5t103.5 265.5q0 161 -103 268.5t-257 107.5 q-156 0 -259.5 -108t-101.5 -268zM393 1159l174 438h170v-28l-231 -410h-113zM725 1159l174 438h170v-28l-229 -410h-115z" />
<glyph unicode="&#x152;" horiz-adv-x="2308" d="M98 676q0 146 54.5 275.5t148 222t223.5 146.5t275 54q171 0 312 -74t224 -202v254h867v-144h-707v-417h541v-136h-541v-512h731v-143h-891v256q-84 -130 -226 -204.5t-312 -74.5q-145 0 -274.5 54.5t-222.5 147.5t-147.5 222.5t-54.5 274.5zM264 676q0 -155 69 -281 t192 -198t274 -72t274 72t192.5 198.5t69.5 280.5t-69.5 280.5t-192.5 198.5t-274 72q-230 0 -382.5 -157.5t-152.5 -393.5z" />
<glyph unicode="&#x153;" horiz-adv-x="2009" d="M102 498q0 145 69.5 265t188.5 188.5t261 68.5q139 0 248.5 -67.5t170.5 -184.5q65 116 176 183t244 67q186 0 316.5 -127.5t130.5 -323.5q0 -59 -13 -118h-774q15 -149 113.5 -238.5t243.5 -89.5q165 0 297 135l96 -104q-79 -84 -181.5 -130.5t-215.5 -46.5 q-138 0 -253 67.5t-180 184.5q-63 -117 -172.5 -183.5t-249.5 -66.5q-142 0 -260.5 68.5t-187 188.5t-68.5 264zM264 498q0 -160 100.5 -267.5t253.5 -107.5t250 107t97 268q0 162 -96 269t-248 107q-154 0 -255.5 -107.5t-101.5 -268.5zM1126 588h619q-3 133 -88 209.5 t-207 76.5t-210.5 -78t-113.5 -208z" />
<glyph unicode="&#x154;" horiz-adv-x="1273" d="M186 0v1352h476q197 0 314.5 -109t117.5 -282q0 -137 -76 -237t-209 -138l432 -586h-186l-420 567h-289v-567h-160zM346 711h309q130 0 201.5 67.5t71.5 179.5q0 111 -71.5 180.5t-201.5 69.5h-309v-497zM477 1483l174 381h193v-29l-246 -352h-121z" />
<glyph unicode="&#x155;" horiz-adv-x="741" d="M174 0v997h148v-141q55 72 136.5 111t172.5 39q29 0 74 -9v-139h-60q-129 0 -221 -78.5t-92 -214.5v-565h-158zM299 1159l174 438h193v-28l-246 -410h-121z" />
<glyph unicode="&#x156;" horiz-adv-x="1273" d="M186 0v1352h476q197 0 314.5 -109t117.5 -282q0 -137 -76 -237t-209 -138l432 -586h-186l-420 567h-289v-567h-160zM346 711h309q130 0 201.5 67.5t71.5 179.5q0 111 -71.5 180.5t-201.5 69.5h-309v-497zM520 -451l19 351h155l-49 -351h-125z" />
<glyph unicode="&#x157;" horiz-adv-x="741" d="M154 -451l18 351h156l-49 -351h-125zM174 0v997h148v-141q55 72 136.5 111t172.5 39q29 0 74 -9v-139h-60q-129 0 -221 -78.5t-92 -214.5v-565h-158z" />
<glyph unicode="&#x158;" horiz-adv-x="1273" d="M186 0v1352h476q197 0 314.5 -109t117.5 -282q0 -137 -76 -237t-209 -138l432 -586h-186l-420 567h-289v-567h-160zM186 1864h125l226 -219l225 219h125l-301 -381h-99zM346 711h309q130 0 201.5 67.5t71.5 179.5q0 111 -71.5 180.5t-201.5 69.5h-309v-497z" />
<glyph unicode="&#x159;" horiz-adv-x="741" d="M29 1597h123l204 -260l205 260h121l-276 -438h-99zM174 0v997h148v-141q55 72 136.5 111t172.5 39q29 0 74 -9v-139h-60q-129 0 -221 -78.5t-92 -214.5v-565h-158z" />
<glyph unicode="&#x15a;" horiz-adv-x="1142" d="M84 268l119 88q152 -231 377 -231q121 0 196.5 61.5t75.5 163.5q0 45 -15 80t-49.5 63.5t-67.5 47.5t-93 47l-152 71q-67 32 -115.5 63t-95 74.5t-70.5 100.5t-24 125q0 104 56.5 185.5t149 124t202.5 42.5q134 0 246 -63t177 -166l-116 -88q-54 81 -135.5 125.5 t-174.5 44.5q-101 0 -170 -51t-69 -146q0 -36 12 -66t27.5 -49.5t49.5 -42t57 -34.5t71 -35l149 -72q160 -76 238 -162t78 -215q0 -168 -123 -272.5t-313 -104.5q-159 0 -289 77.5t-209 213.5zM520 1483l174 381h193v-29l-246 -352h-121z" />
<glyph unicode="&#x15b;" horiz-adv-x="929" d="M80 172l100 104q71 -74 137 -113.5t150 -39.5q81 0 135.5 38t54.5 103q0 31 -11.5 54.5t-39.5 43t-52.5 31.5t-70.5 31l-96 41q-125 52 -186.5 113.5t-61.5 162.5q0 130 96.5 204.5t239.5 74.5q206 0 334 -158l-96 -98q-107 110 -246 110q-73 0 -119.5 -32.5t-46.5 -91.5 q0 -49 36.5 -79.5t125.5 -66.5l92 -39q140 -59 202 -125.5t62 -169.5q0 -139 -101.5 -216t-248.5 -77q-124 0 -224 54t-165 141zM416 1159l174 438h192v-28l-245 -410h-121z" />
<glyph unicode="&#x15c;" horiz-adv-x="1142" d="M84 268l119 88q152 -231 377 -231q121 0 196.5 61.5t75.5 163.5q0 45 -15 80t-49.5 63.5t-67.5 47.5t-93 47l-152 71q-67 32 -115.5 63t-95 74.5t-70.5 100.5t-24 125q0 104 56.5 185.5t149 124t202.5 42.5q134 0 246 -63t177 -166l-116 -88q-54 81 -135.5 125.5 t-174.5 44.5q-101 0 -170 -51t-69 -146q0 -36 12 -66t27.5 -49.5t49.5 -42t57 -34.5t71 -35l149 -72q160 -76 238 -162t78 -215q0 -168 -123 -272.5t-313 -104.5q-159 0 -289 77.5t-209 213.5zM229 1483l301 381h99l301 -381h-125l-225 221l-226 -221h-125z" />
<glyph unicode="&#x15d;" horiz-adv-x="929" d="M80 172l100 104q71 -74 137 -113.5t150 -39.5q81 0 135.5 38t54.5 103q0 31 -11.5 54.5t-39.5 43t-52.5 31.5t-70.5 31l-96 41q-125 52 -186.5 113.5t-61.5 162.5q0 130 96.5 204.5t239.5 74.5q206 0 334 -158l-96 -98q-107 110 -246 110q-73 0 -119.5 -32.5t-46.5 -91.5 q0 -49 36.5 -79.5t125.5 -66.5l92 -39q140 -59 202 -125.5t62 -169.5q0 -139 -101.5 -216t-248.5 -77q-124 0 -224 54t-165 141zM145 1159l279 438h98l277 -438h-121l-205 260l-205 -260h-123z" />
<glyph unicode="&#x15e;" horiz-adv-x="1142" d="M84 268l119 88q152 -231 377 -231q121 0 196.5 61.5t75.5 163.5q0 45 -15 80t-49.5 63.5t-67.5 47.5t-93 47l-152 71q-67 32 -115.5 63t-95 74.5t-70.5 100.5t-24 125q0 104 56.5 185.5t149 124t202.5 42.5q134 0 246 -63t177 -166l-116 -88q-54 81 -135.5 125.5 t-174.5 44.5q-101 0 -170 -51t-69 -146q0 -36 12 -66t27.5 -49.5t49.5 -42t57 -34.5t71 -35l149 -72q160 -76 238 -162t78 -215q0 -143 -89.5 -240.5t-238.5 -125.5q51 -60 51 -144q0 -100 -72 -167.5t-196 -67.5q-69 0 -141 20v113q65 -8 114 -8q72 0 116 33t44 100 q0 56 -35 110q-156 3 -282.5 80t-204.5 211z" />
<glyph unicode="&#x15f;" horiz-adv-x="929" d="M80 172l100 104q71 -74 137 -113.5t150 -39.5q81 0 135.5 38t54.5 103q0 31 -11.5 54.5t-39.5 43t-52.5 31.5t-70.5 31l-96 41q-125 52 -186.5 113.5t-61.5 162.5q0 130 96.5 204.5t239.5 74.5q206 0 334 -158l-96 -98q-107 110 -246 110q-73 0 -119.5 -32.5t-46.5 -91.5 q0 -49 36.5 -79.5t125.5 -66.5l92 -39q140 -59 202 -125.5t62 -169.5q0 -109 -64.5 -180.5t-168.5 -97.5q53 -63 53 -148q0 -100 -72 -167.5t-196 -67.5q-70 0 -142 20v113q65 -8 115 -8q72 0 116 33t44 100q0 56 -35 110q-124 0 -224 54t-165 141z" />
<glyph unicode="&#x160;" horiz-adv-x="1142" d="M84 268l119 88q152 -231 377 -231q121 0 196.5 61.5t75.5 163.5q0 45 -15 80t-49.5 63.5t-67.5 47.5t-93 47l-152 71q-67 32 -115.5 63t-95 74.5t-70.5 100.5t-24 125q0 104 56.5 185.5t149 124t202.5 42.5q134 0 246 -63t177 -166l-116 -88q-54 81 -135.5 125.5 t-174.5 44.5q-101 0 -170 -51t-69 -146q0 -36 12 -66t27.5 -49.5t49.5 -42t57 -34.5t71 -35l149 -72q160 -76 238 -162t78 -215q0 -168 -123 -272.5t-313 -104.5q-159 0 -289 77.5t-209 213.5zM229 1864h125l226 -219l225 219h125l-301 -381h-99z" />
<glyph unicode="&#x161;" horiz-adv-x="929" d="M80 172l100 104q71 -74 137 -113.5t150 -39.5q81 0 135.5 38t54.5 103q0 31 -11.5 54.5t-39.5 43t-52.5 31.5t-70.5 31l-96 41q-125 52 -186.5 113.5t-61.5 162.5q0 130 96.5 204.5t239.5 74.5q206 0 334 -158l-96 -98q-107 110 -246 110q-73 0 -119.5 -32.5t-46.5 -91.5 q0 -49 36.5 -79.5t125.5 -66.5l92 -39q140 -59 202 -125.5t62 -169.5q0 -139 -101.5 -216t-248.5 -77q-124 0 -224 54t-165 141zM145 1597h123l205 -260l205 260h121l-277 -438h-98z" />
<glyph unicode="&#x162;" horiz-adv-x="1189" d="M39 1208v144h1112v-144h-477v-1204q65 -65 65 -160q0 -100 -72 -167.5t-196 -67.5q-69 0 -141 20v113q65 -8 114 -8q72 0 116 33t44 100q0 71 -51 133h-39v1208h-475z" />
<glyph unicode="&#x163;" horiz-adv-x="780" d="M49 856v141h168v273h158v-273h311v-141h-311v-545q0 -106 54.5 -148t156.5 -42q56 0 133 12v-133q-98 -23 -164 -23q43 -59 43 -133q0 -100 -72 -167.5t-196 -67.5q-70 0 -142 20v113q65 -8 115 -8q72 0 116 33t44 100t-49 131q-94 29 -145.5 104.5t-51.5 198.5v555h-168 z" />
<glyph unicode="&#x164;" horiz-adv-x="1189" d="M39 1208v144h1112v-144h-477v-1208h-160v1208h-475zM246 1864h125l225 -219l225 219h125l-301 -381h-98z" />
<glyph unicode="&#x165;" horiz-adv-x="780" d="M49 856v141h168v273h158v-273h311v-141h-311v-545q0 -106 54.5 -148t156.5 -42q56 0 133 12v-133q-98 -23 -166 -23q-155 0 -245.5 80t-90.5 244v555h-168zM571 1104l27 432h170l-78 -432h-119z" />
<glyph unicode="&#x166;" horiz-adv-x="1189" d="M39 1208v144h1112v-144h-477v-540h401v-136h-401v-532h-160v532h-399v136h399v540h-475z" />
<glyph unicode="&#x167;" horiz-adv-x="806" d="M68 449v135h170v276h-170v137h170v273h155v-273h312v-137h-312v-276h312v-135h-312v-138q0 -104 53.5 -147t153.5 -43q60 0 137 12v-133q-94 -23 -166 -23q-154 0 -243.5 80t-89.5 244v148h-170z" />
<glyph unicode="&#x168;" horiz-adv-x="1411" d="M168 537v815h160v-826q0 -132 51.5 -224t135.5 -134.5t192 -42.5q165 0 269.5 102.5t104.5 298.5v826h160v-815q0 -132 -40.5 -239t-112 -176.5t-169 -107t-212.5 -37.5q-157 0 -277.5 64t-191 192t-70.5 304zM367 1591q0 89 48.5 148t129.5 59q70 0 143 -47l70 -45 q3 -2 16 -10.5t16 -10.5t13 -7.5t15.5 -7t13.5 -3.5t16 -2q29 0 44 21t15 55v37h133q2 -16 2 -54q0 -88 -48 -146t-126 -58q-70 0 -149 49l-68 41q-6 4 -22 14.5t-23.5 14.5t-19.5 8t-23 4q-30 0 -45.5 -22.5t-15.5 -55.5v-33h-131q-4 28 -4 51z" />
<glyph unicode="&#x169;" d="M162 397v600h155v-610q0 -120 74 -192t184 -72q108 0 181 72t73 192v610h158v-600q0 -188 -118 -304t-294 -116q-178 0 -295.5 115.5t-117.5 304.5zM252 1298q0 93 46.5 153t127.5 60q77 0 139 -53l53 -45q53 -47 87 -47q57 0 57 84v35h131q2 -18 2 -51 q0 -92 -46.5 -152.5t-127.5 -60.5q-77 0 -139 53l-54 45q-3 2 -13 10.5t-13 10.5t-11 8.5t-12 8t-11 4.5t-13 4t-13 1q-57 0 -57 -84v-35h-131q-2 18 -2 51z" />
<glyph unicode="&#x16a;" horiz-adv-x="1411" d="M168 537v815h160v-826q0 -132 51.5 -224t135.5 -134.5t192 -42.5q165 0 269.5 102.5t104.5 298.5v826h160v-815q0 -132 -40.5 -239t-112 -176.5t-169 -107t-212.5 -37.5q-157 0 -277.5 64t-191 192t-70.5 304zM401 1577v129h605v-129h-605z" />
<glyph unicode="&#x16b;" d="M162 397v600h155v-610q0 -120 74 -192t184 -72q108 0 181 72t73 192v610h158v-600q0 -188 -118 -304t-294 -116q-178 0 -295.5 115.5t-117.5 304.5zM291 1315v127h563v-127h-563z" />
<glyph unicode="&#x16c;" horiz-adv-x="1411" d="M168 537v815h160v-826q0 -132 51.5 -224t135.5 -134.5t192 -42.5q165 0 269.5 102.5t104.5 298.5v826h160v-815q0 -132 -40.5 -239t-112 -176.5t-169 -107t-212.5 -37.5q-157 0 -277.5 64t-191 192t-70.5 304zM393 1827h133q0 -86 51 -137.5t128 -51.5q78 0 128 51.5 t50 137.5h133q0 -134 -88.5 -224t-222.5 -90t-223 90t-89 224z" />
<glyph unicode="&#x16d;" d="M162 397v600h155v-610q0 -120 74 -192t184 -72q108 0 181 72t73 192v610h158v-600q0 -188 -118 -304t-294 -116q-178 0 -295.5 115.5t-117.5 304.5zM262 1507h133q0 -84 50.5 -135t127.5 -51q78 0 129.5 51t51.5 135h131q0 -133 -89 -222t-223 -89t-222.5 89t-88.5 222z " />
<glyph unicode="&#x16e;" horiz-adv-x="1411" d="M168 537v815h160v-826q0 -132 51.5 -224t135.5 -134.5t192 -42.5q165 0 269.5 102.5t104.5 298.5v826h160v-815q0 -132 -40.5 -239t-112 -176.5t-169 -107t-212.5 -37.5q-157 0 -277.5 64t-191 192t-70.5 304zM477 1651q0 93 65 157t160 64q98 0 164 -64t66 -157 t-66 -157t-164 -64q-95 0 -160 64t-65 157zM602 1651q0 -44 30 -73.5t73 -29.5t72.5 29.5t29.5 73.5t-29 74t-73 30t-73.5 -30t-29.5 -74z" />
<glyph unicode="&#x16f;" d="M162 397v600h155v-610q0 -120 74 -192t184 -72q108 0 181 72t73 192v610h158v-600q0 -188 -118 -304t-294 -116q-178 0 -295.5 115.5t-117.5 304.5zM346 1368q0 94 65 157.5t160 63.5q98 0 164 -63.5t66 -157.5q0 -93 -66 -158t-164 -65q-95 0 -160 65t-65 158zM471 1368 q0 -44 29 -73t73 -29t73.5 29t29.5 73t-30 75.5t-73 31.5t-72.5 -31.5t-29.5 -75.5z" />
<glyph unicode="&#x170;" horiz-adv-x="1411" d="M168 537v815h160v-826q0 -132 51.5 -224t135.5 -134.5t192 -42.5q165 0 269.5 102.5t104.5 298.5v826h160v-815q0 -132 -40.5 -239t-112 -176.5t-169 -107t-212.5 -37.5q-157 0 -277.5 64t-191 192t-70.5 304zM442 1483l174 381h170v-29l-231 -352h-113zM815 1483 l174 381h170v-29l-229 -352h-115z" />
<glyph unicode="&#x171;" d="M162 397v600h155v-610q0 -120 74 -192t184 -72q108 0 181 72t73 192v610h158v-600q0 -188 -118 -304t-294 -116q-178 0 -295.5 115.5t-117.5 304.5zM342 1159l174 438h170v-28l-231 -410h-113zM674 1159l174 438h170v-28l-230 -410h-114z" />
<glyph unicode="&#x172;" horiz-adv-x="1411" d="M168 537v815h160v-826q0 -184 107.5 -292.5t269.5 -108.5t269 108.5t107 292.5v826h160v-815q0 -46 -5.5 -89t-12.5 -77.5t-22.5 -69.5t-27.5 -60t-35 -55t-37 -47.5t-42.5 -45.5t-43 -41t-46.5 -41t-45 -40q-51 -47 -74 -80t-23 -73q0 -82 103 -82q43 0 108 14v-117 q-74 -24 -149 -24q-98 0 -158.5 44t-60.5 128q0 106 129 207q-61 -11 -103 -11q-110 0 -207 40t-168 112t-112 177.5t-41 230.5z" />
<glyph unicode="&#x173;" d="M162 397v600h155v-610q0 -120 74 -192t184 -72q108 0 181 72t73 192v610h158v-600q0 -74 -14.5 -130.5t-48 -103.5t-69 -82.5t-95.5 -88.5q-19 -16 -29 -25q-54 -50 -77 -81.5t-23 -69.5q0 -42 28 -64t78 -22q44 0 109 14v-109q-84 -26 -152 -26q-96 0 -154.5 43.5 t-58.5 128.5q0 108 117 196h-23q-180 0 -296.5 115.5t-116.5 304.5z" />
<glyph unicode="&#x174;" horiz-adv-x="2183" d="M92 1352h176l373 -1030l422 1052h57l422 -1050l373 1028h174l-512 -1375h-57l-428 1074l-428 -1074h-58zM741 1483l301 381h99l301 -381h-125l-225 221l-226 -221h-125z" />
<glyph unicode="&#x175;" horiz-adv-x="1742" d="M53 997h168l289 -739l332 762h59l336 -756l283 733h168l-420 -1020h-58l-340 754l-338 -754h-55zM541 1159l278 438h99l276 -438h-121l-205 260l-204 -260h-123z" />
<glyph unicode="&#x176;" horiz-adv-x="1261" d="M82 1352h180l369 -635l370 635h179l-469 -793v-559h-160v559zM274 1483l301 381h99l301 -381h-125l-225 221l-226 -221h-125z" />
<glyph unicode="&#x177;" horiz-adv-x="1103" d="M53 997h170l330 -794l330 794h168l-492 -1136q-58 -132 -140 -192t-198 -60q-75 0 -153 20v133q78 -10 120 -10q78 0 132.5 35t93.5 125l53 119zM221 1159l279 438h98l276 -438h-120l-205 260l-205 -260h-123z" />
<glyph unicode="&#x178;" horiz-adv-x="1261" d="M82 1352h180l369 -635l370 635h179l-469 -793v-559h-160v559zM272 1659q0 45 34.5 76.5t78.5 31.5q47 0 80 -31t33 -77t-33 -77.5t-80 -31.5q-44 0 -78.5 32t-34.5 77zM750 1657q0 45 33.5 77.5t78.5 32.5q46 0 79.5 -32.5t33.5 -77.5q0 -44 -33.5 -76.5t-79.5 -32.5 q-45 0 -78.5 32.5t-33.5 76.5z" />
<glyph unicode="&#x179;" horiz-adv-x="1206" d="M66 0v47l815 1161h-727v144h981v-47l-820 -1162h822v-143h-1071zM555 1483l174 381h193v-29l-246 -352h-121z" />
<glyph unicode="&#x17a;" horiz-adv-x="929" d="M55 0v47l570 809h-523v141h766v-47l-571 -811h577v-139h-819zM430 1159l174 438h193v-28l-246 -410h-121z" />
<glyph unicode="&#x17b;" horiz-adv-x="1206" d="M66 0v47l815 1161h-727v144h981v-47l-820 -1162h822v-143h-1071zM496 1659q0 47 34.5 81t83.5 34q47 0 82 -34t35 -81q0 -49 -34.5 -82t-82.5 -33q-50 0 -84 33t-34 82z" />
<glyph unicode="&#x17c;" horiz-adv-x="929" d="M55 0v47l570 809h-523v141h766v-47l-571 -811h577v-139h-819zM367 1378q0 47 34.5 81t83.5 34q47 0 82 -34t35 -81q0 -49 -34.5 -81.5t-82.5 -32.5q-50 0 -84 32.5t-34 81.5z" />
<glyph unicode="&#x17d;" horiz-adv-x="1206" d="M66 0v47l815 1161h-727v144h981v-47l-820 -1162h822v-143h-1071zM264 1864h125l225 -219l226 219h125l-301 -381h-99z" />
<glyph unicode="&#x17e;" horiz-adv-x="929" d="M55 0v47l570 809h-523v141h766v-47l-571 -811h577v-139h-819zM160 1597h123l204 -260l205 260h121l-276 -438h-99z" />
<glyph unicode="&#x2c6;" horiz-adv-x="776" d="M61 1159l279 438h98l277 -438h-121l-205 260l-205 -260h-123z" />
<glyph unicode="&#x2da;" horiz-adv-x="577" d="M61 1368q0 94 65.5 157.5t160.5 63.5q98 0 163.5 -63.5t65.5 -157.5q0 -93 -66 -158t-163 -65q-95 0 -160.5 65t-65.5 158zM186 1368q0 -44 29.5 -73t73.5 -29t73 29t29 73t-29.5 75.5t-72.5 31.5t-73 -31.5t-30 -75.5z" />
<glyph unicode="&#x2dc;" horiz-adv-x="765" d="M61 1298q0 93 47 153t128 60q77 0 139 -53l53 -45q29 -26 47 -36.5t39 -10.5q57 0 57 84v35h131q3 -27 3 -51q0 -92 -47 -152.5t-128 -60.5q-77 0 -139 53l-53 45q-3 2 -13 10.5t-13 10.5t-11 8.5t-12 8t-11 4.5t-13 4t-13 1q-57 0 -57 -84v-35h-132q-2 18 -2 51z" />
<glyph unicode="&#x2000;" horiz-adv-x="1024" />
<glyph unicode="&#x2001;" horiz-adv-x="2048" />
<glyph unicode="&#x2002;" horiz-adv-x="1024" />
<glyph unicode="&#x2003;" horiz-adv-x="2048" />
<glyph unicode="&#x2004;" horiz-adv-x="682" />
<glyph unicode="&#x2005;" horiz-adv-x="512" />
<glyph unicode="&#x2006;" horiz-adv-x="341" />
<glyph unicode="&#x2007;" horiz-adv-x="341" />
<glyph unicode="&#x2008;" horiz-adv-x="256" />
<glyph unicode="&#x2009;" horiz-adv-x="409" />
<glyph unicode="&#x200a;" horiz-adv-x="113" />
<glyph unicode="&#x2010;" horiz-adv-x="708" d="M109 578v133h489v-133h-489z" />
<glyph unicode="&#x2011;" horiz-adv-x="708" d="M109 578v133h489v-133h-489z" />
<glyph unicode="&#x2012;" horiz-adv-x="708" d="M109 578v133h489v-133h-489z" />
<glyph unicode="&#x2013;" horiz-adv-x="1036" d="M88 578v133h858v-133h-858z" />
<glyph unicode="&#x2014;" horiz-adv-x="2048" d="M102 578v133h1844v-133h-1844z" />
<glyph unicode="&#x2018;" horiz-adv-x="573" d="M170 825l86 527h125l-27 -527h-184z" />
<glyph unicode="&#x2019;" horiz-adv-x="573" d="M193 825l28 527h185l-89 -527h-124z" />
<glyph unicode="&#x201a;" horiz-adv-x="573" d="M193 -342l28 526h185l-89 -526h-124z" />
<glyph unicode="&#x201c;" horiz-adv-x="948" d="M170 825l86 527h125l-27 -527h-184zM545 825l86 527h125l-27 -527h-184z" />
<glyph unicode="&#x201d;" horiz-adv-x="948" d="M193 825l28 527h185l-89 -527h-124zM567 825l29 527h184l-88 -527h-125z" />
<glyph unicode="&#x201e;" horiz-adv-x="948" d="M193 -342l28 526h185l-89 -526h-124zM567 -342l29 526h184l-88 -526h-125z" />
<glyph unicode="&#x2026;" horiz-adv-x="1574" d="M147 106q0 56 38 93t91 37q54 0 92 -37t38 -93t-38 -92.5t-92 -36.5t-91.5 36.5t-37.5 92.5zM659 106q0 56 38 93t91 37q54 0 92 -37t38 -93t-38 -92.5t-92 -36.5t-91.5 36.5t-37.5 92.5zM1169 106q0 56 38 93t91 37t91 -37t38 -93t-37.5 -92.5t-91.5 -36.5t-91.5 36.5 t-37.5 92.5z" />
<glyph unicode="&#x202f;" horiz-adv-x="409" />
<glyph unicode="&#x2039;" horiz-adv-x="626" d="M78 530v48l364 387l103 -93l-289 -317l289 -322l-103 -88z" />
<glyph unicode="&#x203a;" horiz-adv-x="626" d="M80 233l291 322l-291 317l104 93l363 -387v-48l-363 -385z" />
<glyph unicode="&#x205f;" horiz-adv-x="512" />
<glyph unicode="&#x20ac;" horiz-adv-x="1394" d="M10 444v140h195q-4 62 -4 92t4 84h-191v139h215q58 215 219 345t386 130q149 0 268.5 -59t191.5 -162l-114 -92q-123 166 -340 166q-162 0 -276 -88t-165 -240h598l-32 -139h-594q-4 -54 -4 -84q0 -46 6 -92h538l-34 -140h-474q51 -148 164.5 -233.5t272.5 -85.5 q217 0 340 166l114 -92q-72 -104 -191.5 -163t-268.5 -59q-223 0 -382.5 127.5t-220.5 339.5h-221z" />
<glyph unicode="&#x2122;" horiz-adv-x="1964" d="M27 1227v125h766v-125h-316v-795h-135v795h-315zM948 432v934h49l385 -520l385 520h48v-934h-138v602l-272 -366h-47l-271 366v-602h-139z" />
<glyph unicode="&#x25fc;" horiz-adv-x="993" d="M0 0v993h993v-993h-993z" />
</font>
</defs>
</svg>
